Lagwagon – I Think My Older Brother Used To Listen To Lagwagon




Artist: Lagwagon
Year: 2008
Genre: Punk
Notes: Discogs
Add. Notes:
Cover incl.: Yes
Encoder: FLAC
Bitrate: ~1000 kBit/s (44.1 kHz/16 Bit/s)
Log & Cue incl.: Yes
Size: 137,4 MB
Password: “slam” (without ” “)


All Downloads/Hosters are compatible

Download 1
KatFile.com
Turbobit.net
Rapidgator.net
Usersdrive.com
Download 2
KatFile.com
Turbobit.net
Rapidgator.net
Usersdrive.com

Tracklist:

1 - B Side - 2:58
2 - No Little Pill - 2:31
3 - Errands - 3:06
4 - Memoirs And Landmines - 1:55
5 - Fallen - 2:56
6 - Live It Down - 3:44
7 - Mission Unaccomplished - 1:57

EAC-Log, CUE-Sheed & NFO:

Click to open spoiler
Exact Audio Copy V0.99 prebeta 5 from 4. May 2009

EAC extraction logfile from 6. May 2010, 6:38

Lagwagon / I Think My Older Brother Used To Listen To Lagwagon

Used drive : PLEXTOR CD-R PX-W4012A Adapter: 2 ID: 1

Read mode : Secure
Utilize accurate stream : Yes
Defeat audio cache : Yes
Make use of C2 pointers : No

Read offset correction : 98
Overread into Lead-In and Lead-Out : No
Fill up missing offset samples with silence : Yes
Delete leading and trailing silent blocks : No
Null samples used in CRC calculations : Yes
Used interface : Native Win32 interface for Win NT & 2000
Gap handling : Appended to previous track

Used output format : User Defined Encoder
Selected bitrate : 320 kBit/s
Quality : High
Add ID3 tag : No
Command line compressor : C:\Program Files (x86)\Exact Audio Copy\Flac\flac.exe
Additional command line options : -V -8 -T “artist=%a” -T “title=%t” -T “album=%g” -T “date=%y” -T “tracknumber=%n” -T “genre=%m” %s

TOC of the extracted CD

Track | Start | Length | Start sector | End sector
———————————————————
1 | 0:00.00 | 2:58.15 | 0 | 13364
2 | 2:58.15 | 2:31.37 | 13365 | 24726
3 | 5:29.52 | 3:05.60 | 24727 | 38661
4 | 8:35.37 | 1:55.30 | 38662 | 47316
5 | 10:30.67 | 2:56.15 | 47317 | 60531
6 | 13:27.07 | 3:44.00 | 60532 | 77331
7 | 17:11.07 | 1:55.15 | 77332 | 85971

Track 1

Filename H:\RIPS\Lagwagon – 2008 – I Think My Older Brother Used To Listen To Lagwagon\01 – B side.wav

Pre-gap length 0:00:02.00

Peak level 100.0 %
Track quality 100.0 %
Test CRC 2C85F3EA
Copy CRC 2C85F3EA
Track not present in AccurateRip database
Copy OK

Track 2

Filename H:\RIPS\Lagwagon – 2008 – I Think My Older Brother Used To Listen To Lagwagon\02 – No Little Pill.wav

Peak level 100.0 %
Track quality 100.0 %
Test CRC EE01DEE5
Copy CRC EE01DEE5
Track not present in AccurateRip database
Copy OK

Track 3

Filename H:\RIPS\Lagwagon – 2008 – I Think My Older Brother Used To Listen To Lagwagon\03 – Errands.wav

Peak level 98.8 %
Track quality 100.0 %
Test CRC 9BF1594F
Copy CRC 9BF1594F
Track not present in AccurateRip database
Copy OK

Track 4

Filename H:\RIPS\Lagwagon – 2008 – I Think My Older Brother Used To Listen To Lagwagon\04 – Memoirs and Landmines.wav

Peak level 97.7 %
Track quality 100.0 %
Test CRC 2E592584
Copy CRC 2E592584
Track not present in AccurateRip database
Copy OK

Track 5

Filename H:\RIPS\Lagwagon – 2008 – I Think My Older Brother Used To Listen To Lagwagon\05 – Fallen.wav

Peak level 94.4 %
Track quality 100.0 %
Test CRC FC5DAB9E
Copy CRC FC5DAB9E
Track not present in AccurateRip database
Copy OK

Track 6

Filename H:\RIPS\Lagwagon – 2008 – I Think My Older Brother Used To Listen To Lagwagon\06 – Live It Down.wav

Peak level 100.0 %
Track quality 100.0 %
Test CRC A80BF0DE
Copy CRC A80BF0DE
Track not present in AccurateRip database
Copy OK

Track 7

Filename H:\RIPS\Lagwagon – 2008 – I Think My Older Brother Used To Listen To Lagwagon\07 – Mission Unaccomplished.wav

Peak level 96.6 %
Track quality 100.0 %
Test CRC 134A5B11
Copy CRC 134A5B11
Track not present in AccurateRip database
Copy OK

None of the tracks are present in the AccurateRip database

No errors occurred

End of status report

REM GENRE “Punk Rock”
REM DATE 2008
REM DISCID 42047A07
REM COMMENT “ExactAudioCopy v0.99pb5”
PERFORMER “Lagwagon”
TITLE “I Think My Older Brother Used To Listen To Lagwagon”
FILE “01 – B side.wav” WAVE
TRACK 01 AUDIO
TITLE “B side”
PERFORMER “Lagwagon”
INDEX 01 00:00:00
FILE “02 – No Little Pill.wav” WAVE
TRACK 02 AUDIO
TITLE “No Little Pill”
PERFORMER “Lagwagon”
INDEX 01 00:00:00
FILE “03 – Errands.wav” WAVE
TRACK 03 AUDIO
TITLE “Errands”
PERFORMER “Lagwagon”
INDEX 01 00:00:00
FILE “04 – Memoirs and Landmines.wav” WAVE
TRACK 04 AUDIO
TITLE “Memoirs and Landmines”
PERFORMER “Lagwagon”
INDEX 01 00:00:00
FILE “05 – Fallen.wav” WAVE
TRACK 05 AUDIO
TITLE “Fallen”
PERFORMER “Lagwagon”
INDEX 01 00:00:00
FILE “06 – Live It Down.wav” WAVE
TRACK 06 AUDIO
TITLE “Live It Down”
PERFORMER “Lagwagon”
INDEX 01 00:00:00
FILE “07 – Mission Unaccomplished.wav” WAVE
TRACK 07 AUDIO
TITLE “Mission Unaccomplished”
PERFORMER “Lagwagon”
INDEX 01 00:00:00


Leave a Reply

Your email address will not be published. Required fields are marked *

This site uses Akismet to reduce spam. Learn how your comment data is processed.