Lagwagon – Duh




Artist: Lagwagon
Year: 1992
Genre: Punk
Notes: Discogs
Add. Notes:
Cover incl.: Yes
Encoder: FLAC
Bitrate: ~1100 kBit/s (44.1 kHz/16 Bit/s)
Log & Cue incl.: Yes
Size: 242,82 MB
Password: “slam” (without ” “)


All Downloads/Hosters are compatible

Download 1
Turbobit.net
KatFile.com
Rapidgator.net
Download 2
Turbobit.net
KatFile.com
Rapidgator.net

Tracklist:

1 - Tragic Vision - 2:33
2 - Foiled Again - 1:34
3 - Bury The Hatchet - 2:46
4 - Angry Days - 3:14
5 - Noble End - 1:38
6 - Child Inside - 2:09
7 - Bad Moon Rising - 1:49
8 - Beer Goggles - 2:43
9 - Inspector Gadget - 0:24
10 - Parents Guide To Living - 1:45
11 - Mr. Coffee - 2:15
12 - Of Mind And Matter - 2:45
13 - Stop Whining - 2:36
14 - Lag Wagon - 2:49

EAC-Log, CUE-Sheed & NFO:

Click to open spoiler
EAC extraction logfile from 3. December 2006, 10:18 for CD
Lagwagon / Duh

Used drive : QSI CDRW/DVD SBW-242 Adapter: 1 ID: 0
Read mode : Secure with NO C2, accurate stream, disable cache
Read offset correction : 6
Overread into Lead-In and Lead-Out : No

Used output format : C:\Programmi\Exact Audio Copy\FLAC\bin\flac.exe (User Defined Encoder)
320 kBit/s
Additional command line options : -V -8 -T “artist=%a” -T “title=%t” -T “album=%g” -T “date=%y” -T “tracknumber=%n” -T “genre=%m” %s

Other options :
Fill up missing offset samples with silence : Yes
Delete leading and trailing silent blocks : No
Native Win32 interface for Win NT & 2000

Track 1
Filename C:\Documents and Settings\Carlo\Desktop\Lagwagon – Duh\01_-_Tragic_Vision.wav

Pre-gap length 0:00:02.00

Peak level 98.4 %
Track quality 100.0 %
Test CRC E4BD0A6A
Copy CRC E4BD0A6A
Copy OK

Track 2
Filename C:\Documents and Settings\Carlo\Desktop\Lagwagon – Duh\02_-_Foiled_Again.wav

Pre-gap length 0:00:01.06

Peak level 91.1 %
Track quality 100.0 %
Test CRC 21CF61D4
Copy CRC 21CF61D4
Copy OK

Track 3
Filename C:\Documents and Settings\Carlo\Desktop\Lagwagon – Duh\03_-_Bury_The_Hatchet.wav

Pre-gap length 0:00:00.36

Peak level 92.2 %
Track quality 100.0 %
Test CRC CCA4331C
Copy CRC CCA4331C
Copy OK

Track 4
Filename C:\Documents and Settings\Carlo\Desktop\Lagwagon – Duh\04_-_Angry_Days.wav

Pre-gap length 0:00:01.10

Peak level 93.8 %
Track quality 99.9 %
Test CRC D5D6FBB2
Copy CRC D5D6FBB2
Copy OK

Track 5
Filename C:\Documents and Settings\Carlo\Desktop\Lagwagon – Duh\05_-_Noble_End.wav

Pre-gap length 0:00:00.09

Peak level 98.4 %
Track quality 100.0 %
Test CRC 67E9DB0E
Copy CRC 67E9DB0E
Copy OK

Track 6
Filename C:\Documents and Settings\Carlo\Desktop\Lagwagon – Duh\06_-_Child_Inside.wav

Pre-gap length 0:00:00.44

Peak level 98.4 %
Track quality 100.0 %
Test CRC 34F2549F
Copy CRC 34F2549F
Copy OK

Track 7
Filename C:\Documents and Settings\Carlo\Desktop\Lagwagon – Duh\07_-_Bad_Moon_Rising.wav

Pre-gap length 0:00:00.60

Peak level 95.8 %
Track quality 100.0 %
Test CRC 3E8B11AF
Copy CRC 3E8B11AF
Copy OK

Track 8
Filename C:\Documents and Settings\Carlo\Desktop\Lagwagon – Duh\08_-_Beer_Goggles.wav

Pre-gap length 0:00:00.22

Peak level 94.4 %
Track quality 100.0 %
Test CRC 9E95041F
Copy CRC 9E95041F
Copy OK

Track 9
Filename C:\Documents and Settings\Carlo\Desktop\Lagwagon – Duh\09_-_Inspector_Gadget.wav

Pre-gap length 0:00:00.76

Peak level 88.7 %
Track quality 100.0 %
Test CRC D300D19B
Copy CRC D300D19B
Copy OK

Track 10
Filename C:\Documents and Settings\Carlo\Desktop\Lagwagon – Duh\10_-_Parents_Guide_To_Living.wav

Peak level 89.7 %
Track quality 100.0 %
Test CRC 2178C5CA
Copy CRC 2178C5CA
Copy OK

Track 11
Filename C:\Documents and Settings\Carlo\Desktop\Lagwagon – Duh\11_-_Mr._Coffee.wav

Pre-gap length 0:00:01.13

Peak level 92.1 %
Track quality 99.9 %
Test CRC 0F996189
Copy CRC 0F996189
Copy OK

Track 12
Filename C:\Documents and Settings\Carlo\Desktop\Lagwagon – Duh\12_-_Of_Mind_And_Matter.wav

Pre-gap length 0:00:00.70

Peak level 88.8 %
Track quality 100.0 %
Test CRC CA80854F
Copy CRC CA80854F
Copy OK

Track 13
Filename C:\Documents and Settings\Carlo\Desktop\Lagwagon – Duh\13_-_Stop_Whining.wav

Pre-gap length 0:00:00.36

Peak level 98.4 %
Track quality 100.0 %
Test CRC FB1D1FB8
Copy CRC FB1D1FB8
Copy OK

Track 14
Filename C:\Documents and Settings\Carlo\Desktop\Lagwagon – Duh\14_-_Lag_Wagon.wav

Pre-gap length 0:00:00.69

Peak level 98.4 %
Track quality 100.0 %
Test CRC 1E89AFE3
Copy CRC 1E89AFE3
Copy OK

No errors occured

End of status report

REM GENRE “Punk Rock”
REM DATE 1995
REM DISCID B107490E
REM COMMENT “ExactAudioCopy v0.95b3”
PERFORMER “Lagwagon”
TITLE “Duh”
FILE “01 – Tragic Vision.wav” WAVE
TRACK 01 AUDIO
TITLE “Tragic Vision”
PERFORMER “Lagwagon”
INDEX 01 00:00:00
TRACK 02 AUDIO
TITLE “Foiled Again”
PERFORMER “Lagwagon”
INDEX 00 02:32:42
FILE “02 – Foiled Again.wav” WAVE
INDEX 01 00:00:00
TRACK 03 AUDIO
TITLE “Bury The Hatchet”
PERFORMER “Lagwagon”
INDEX 00 01:33:58
FILE “03 – Bury The Hatchet.wav” WAVE
INDEX 01 00:00:00
TRACK 04 AUDIO
TITLE “Angry Days”
PERFORMER “Lagwagon”
INDEX 00 02:45:10
FILE “04 – Angry Days.wav” WAVE
INDEX 01 00:00:00
TRACK 05 AUDIO
TITLE “Noble End”
PERFORMER “Lagwagon”
INDEX 00 03:14:10
FILE “05 – Noble End.wav” WAVE
INDEX 01 00:00:00
TRACK 06 AUDIO
TITLE “Child Inside”
PERFORMER “Lagwagon”
INDEX 00 01:38:25
FILE “06 – Child Inside.wav” WAVE
INDEX 01 00:00:00
TRACK 07 AUDIO
TITLE “Bad Moon Rising”
PERFORMER “Lagwagon”
INDEX 00 02:09:00
FILE “07 – Bad Moon Rising.wav” WAVE
INDEX 01 00:00:00
TRACK 08 AUDIO
TITLE “Beer Goggles”
PERFORMER “Lagwagon”
INDEX 00 01:48:65
FILE “08 – Beer Goggles.wav” WAVE
INDEX 01 00:00:00
TRACK 09 AUDIO
TITLE “Inspector Gadget”
PERFORMER “Lagwagon”
INDEX 00 02:42:58
FILE “09 – Inspector Gadget.wav” WAVE
INDEX 01 00:00:00
FILE “10 – Parents Guide To Living.wav” WAVE
TRACK 10 AUDIO
TITLE “Parents Guide To Living”
PERFORMER “Lagwagon”
INDEX 01 00:00:00
TRACK 11 AUDIO
TITLE “Mr. Coffee”
PERFORMER “Lagwagon”
INDEX 00 01:44:43
FILE “11 – Mr. Coffee.wav” WAVE
INDEX 01 00:00:00
TRACK 12 AUDIO
TITLE “Of Mind And Matter”
PERFORMER “Lagwagon”
INDEX 00 02:15:07
FILE “12 – Of Mind And Matter.wav” WAVE
INDEX 01 00:00:00
TRACK 13 AUDIO
TITLE “Stop Whining”
PERFORMER “Lagwagon”
INDEX 00 02:44:65
FILE “13 – Stop Whining.wav” WAVE
INDEX 01 00:00:00
TRACK 14 AUDIO
TITLE “Lag Wagon”
PERFORMER “Lagwagon”
INDEX 00 02:35:48
FILE “14 – Lag Wagon.wav” WAVE
INDEX 01 00:00:00


Leave a Reply

Your email address will not be published. Required fields are marked *

This site uses Akismet to reduce spam. Learn how your comment data is processed.