Lagwagon – Double Plaidinum




Artist: Lagwagon
Year: 1997
Genre: Punk
Notes: Discogs
Add. Notes:
Cover incl.: No
Encoder: FLAC
Bitrate: ~1000 kBit/s (44.1 kHz/16 Bit/s)
Log & Cue incl.: Yes
Size: 230,56 MB
Password: “slam” (without ” “)


All Downloads/Hosters are compatible

Download 1
Turbobit.net
Rapidgator.net
KatFile.com
UploadRar.com
Download 2
Turbobit.net
Rapidgator.net
KatFile.com
UploadRar.com

Tracklist:

1 - Alien 8 - 1:50
2 - Making Friends - 2:15
3 - Unfurnished - 3:15
4 - One Thing To Live - 1:28
5 - Today - 2:04
6 - Confession - 2:52
7 - Bad Scene - 1:17
8 - Smile - 2:05
9 - Twenty-Seven - 2:29
10 - Choke - 2:45
11 - Failure - 2:45
12 - To All My Friends - 6:01

EAC-Log, CUE-Sheed & NFO:

Click to open spoiler
X Lossless Decoder version 20080926 (93.3)

XLD extraction logfile from 2008-12-15 21:08:36 +0000

Lagwagon / Double Plaidinum

Used drive : MATSHITA DVD-R UJ-857D (revision KBVB)

Use cdparanoia mode : YES (CDParanoia III 10.2 engine)
Disable audio cache : OK for the drive with cache less than 2750KB
Make use of C2 pointers : NO
Read offset correction : 102
Max retry count : 100

TOC of the extracted CD
Track | Start | Length | Start sector | End sector
———————————————————
1 | 00:00:00 | 01:50:08 | 0 | 8257
2 | 01:50:08 | 02:15:32 | 8258 | 18414
3 | 04:05:40 | 03:15:10 | 18415 | 33049
4 | 07:20:50 | 01:28:43 | 33050 | 39692
5 | 08:49:18 | 02:04:45 | 39693 | 49037
6 | 10:53:63 | 02:52:10 | 49038 | 61947
7 | 13:45:73 | 01:17:30 | 61948 | 67752
8 | 15:03:28 | 02:05:05 | 67753 | 77132
9 | 17:08:33 | 02:29:70 | 77133 | 88377
10 | 19:38:28 | 02:45:60 | 88378 | 100812
11 | 22:24:13 | 02:45:35 | 100813 | 113222
12 | 25:09:48 | 06:01:00 | 113223 | 140297

Track 01
Filename : /Users/benburdett/Desktop/Music/what.cd torrents/FLAC/01 Lagwagon – Alien 8.flac

CRC32 hash (test run) : D0D42FD5
CRC32 hash : D0D42FD5
CRC32 hash (skip zero) : 627F1509
AccurateRip signature : 96A8DAC8
->Track not present in AccurateRip database.
Statistics
Read error : 0
Skipped (treated as error) : 0
Edge jitter error (maybe fixed) : 0
Atom jitter error (maybe fixed) : 0
Drift error (maybe fixed) : 0
Dropped bytes error (maybe fixed) : 0
Duplicated bytes error (maybe fixed) : 0
Inconsistency in error sectors : 0

Track 02
Filename : /Users/benburdett/Desktop/Music/what.cd torrents/FLAC/02 Lagwagon – Making Friends.flac

CRC32 hash (test run) : 73C2EB26
CRC32 hash : 73C2EB26
CRC32 hash (skip zero) : 2C13C4F9
AccurateRip signature : 2A11F04F
->Track not present in AccurateRip database.
Statistics
Read error : 0
Skipped (treated as error) : 0
Edge jitter error (maybe fixed) : 0
Atom jitter error (maybe fixed) : 0
Drift error (maybe fixed) : 0
Dropped bytes error (maybe fixed) : 0
Duplicated bytes error (maybe fixed) : 0
Inconsistency in error sectors : 0

Track 03
Filename : /Users/benburdett/Desktop/Music/what.cd torrents/FLAC/03 Lagwagon – Unfurnished.flac

CRC32 hash (test run) : 6724DB28
CRC32 hash : 6724DB28
CRC32 hash (skip zero) : 0D8ED60E
AccurateRip signature : F2CAF297
->Track not present in AccurateRip database.
Statistics
Read error : 0
Skipped (treated as error) : 0
Edge jitter error (maybe fixed) : 0
Atom jitter error (maybe fixed) : 0
Drift error (maybe fixed) : 0
Dropped bytes error (maybe fixed) : 0
Duplicated bytes error (maybe fixed) : 0
Inconsistency in error sectors : 0

Track 04
Filename : /Users/benburdett/Desktop/Music/what.cd torrents/FLAC/04 Lagwagon – One Thing To Live.flac

CRC32 hash (test run) : BC8D218C
CRC32 hash : BC8D218C
CRC32 hash (skip zero) : 20E10C11
AccurateRip signature : 6FFA2C08
->Track not present in AccurateRip database.
Statistics
Read error : 0
Skipped (treated as error) : 0
Edge jitter error (maybe fixed) : 0
Atom jitter error (maybe fixed) : 0
Drift error (maybe fixed) : 0
Dropped bytes error (maybe fixed) : 0
Duplicated bytes error (maybe fixed) : 0
Inconsistency in error sectors : 0

Track 05
Filename : /Users/benburdett/Desktop/Music/what.cd torrents/FLAC/05 Lagwagon – Today.flac

CRC32 hash (test run) : 909AAAFF
CRC32 hash : 909AAAFF
CRC32 hash (skip zero) : 12C8089E
AccurateRip signature : 960FFC05
->Track not present in AccurateRip database.
Statistics
Read error : 0
Skipped (treated as error) : 0
Edge jitter error (maybe fixed) : 0
Atom jitter error (maybe fixed) : 0
Drift error (maybe fixed) : 0
Dropped bytes error (maybe fixed) : 0
Duplicated bytes error (maybe fixed) : 0
Inconsistency in error sectors : 0

Track 06
Filename : /Users/benburdett/Desktop/Music/what.cd torrents/FLAC/06 Lagwagon – Confession.flac

CRC32 hash (test run) : 6F64A471
CRC32 hash : 6F64A471
CRC32 hash (skip zero) : CDF93DFB
AccurateRip signature : 2C63A50D
->Track not present in AccurateRip database.
Statistics
Read error : 0
Skipped (treated as error) : 0
Edge jitter error (maybe fixed) : 0
Atom jitter error (maybe fixed) : 0
Drift error (maybe fixed) : 0
Dropped bytes error (maybe fixed) : 0
Duplicated bytes error (maybe fixed) : 0
Inconsistency in error sectors : 0

Track 07
Filename : /Users/benburdett/Desktop/Music/what.cd torrents/FLAC/07 Lagwagon – Bad Scene.flac

CRC32 hash (test run) : A697A777
CRC32 hash : A697A777
CRC32 hash (skip zero) : 424AA248
AccurateRip signature : 5E8EA995
->Track not present in AccurateRip database.
Statistics
Read error : 0
Skipped (treated as error) : 0
Edge jitter error (maybe fixed) : 0
Atom jitter error (maybe fixed) : 0
Drift error (maybe fixed) : 0
Dropped bytes error (maybe fixed) : 0
Duplicated bytes error (maybe fixed) : 0
Inconsistency in error sectors : 0

Track 08
Filename : /Users/benburdett/Desktop/Music/what.cd torrents/FLAC/08 Lagwagon – Smile.flac

CRC32 hash (test run) : 6DE6A468
CRC32 hash : 6DE6A468
CRC32 hash (skip zero) : 25781ED5
AccurateRip signature : 0A2EEE62
->Track not present in AccurateRip database.
Statistics
Read error : 0
Skipped (treated as error) : 0
Edge jitter error (maybe fixed) : 0
Atom jitter error (maybe fixed) : 0
Drift error (maybe fixed) : 0
Dropped bytes error (maybe fixed) : 0
Duplicated bytes error (maybe fixed) : 0
Inconsistency in error sectors : 0

Track 09
Filename : /Users/benburdett/Desktop/Music/what.cd torrents/FLAC/09 Lagwagon – Twenty-Seven.flac

CRC32 hash (test run) : 26359C68
CRC32 hash : 26359C68
CRC32 hash (skip zero) : EA3B7D56
AccurateRip signature : 9DFE82E8
->Track not present in AccurateRip database.
Statistics
Read error : 0
Skipped (treated as error) : 0
Edge jitter error (maybe fixed) : 0
Atom jitter error (maybe fixed) : 0
Drift error (maybe fixed) : 0
Dropped bytes error (maybe fixed) : 0
Duplicated bytes error (maybe fixed) : 0
Inconsistency in error sectors : 0

Track 10
Filename : /Users/benburdett/Desktop/Music/what.cd torrents/FLAC/10 Lagwagon – Choke.flac

CRC32 hash (test run) : 724AAA18
CRC32 hash : 724AAA18
CRC32 hash (skip zero) : 4490EFB0
AccurateRip signature : 94D6F5F5
->Track not present in AccurateRip database.
Statistics
Read error : 0
Skipped (treated as error) : 0
Edge jitter error (maybe fixed) : 0
Atom jitter error (maybe fixed) : 0
Drift error (maybe fixed) : 0
Dropped bytes error (maybe fixed) : 0
Duplicated bytes error (maybe fixed) : 0
Inconsistency in error sectors : 0

Track 11
Filename : /Users/benburdett/Desktop/Music/what.cd torrents/FLAC/11 Lagwagon – Failure.flac

CRC32 hash (test run) : B9718A4E
CRC32 hash : B9718A4E
CRC32 hash (skip zero) : 1A4748AE
AccurateRip signature : D60C5B84
->Track not present in AccurateRip database.
Statistics
Read error : 0
Skipped (treated as error) : 0
Edge jitter error (maybe fixed) : 0
Atom jitter error (maybe fixed) : 0
Drift error (maybe fixed) : 0
Dropped bytes error (maybe fixed) : 0
Duplicated bytes error (maybe fixed) : 0
Inconsistency in error sectors : 0

Track 12
Filename : /Users/benburdett/Desktop/Music/what.cd torrents/FLAC/12 Lagwagon – To All My Friends.flac

CRC32 hash (test run) : 34A11DC9
CRC32 hash : 34A11DC9
CRC32 hash (skip zero) : 7A95EE87
AccurateRip signature : 21C0EC39
->Track not present in AccurateRip database.
Statistics
Read error : 0
Skipped (treated as error) : 0
Edge jitter error (maybe fixed) : 0
Atom jitter error (maybe fixed) : 0
Drift error (maybe fixed) : 0
Dropped bytes error (maybe fixed) : 0
Duplicated bytes error (maybe fixed) : 0
Inconsistency in error sectors : 0

No errors occurred

End of status report

TITLE “Double Plaidinum”
PERFORMER “Lagwagon”
REM GENRE “Alternative & Punk”
REM DATE 1997
FILE “01 Lagwagon – Alien 8.wav” WAVE
TRACK 01 AUDIO
TITLE “Alien 8”
INDEX 01 00:00:00
FILE “02 Lagwagon – Making Friends.wav” WAVE
TRACK 02 AUDIO
TITLE “Making Friends”
INDEX 01 00:00:00
FILE “03 Lagwagon – Unfurnished.wav” WAVE
TRACK 03 AUDIO
TITLE “Unfurnished”
INDEX 01 00:00:00
TRACK 04 AUDIO
TITLE “One Thing To Live”
INDEX 00 03:05:10
FILE “04 Lagwagon – One Thing To Live.wav” WAVE
INDEX 01 00:00:00
FILE “05 Lagwagon – Today.wav” WAVE
TRACK 05 AUDIO
TITLE “Today”
INDEX 01 00:00:00
FILE “06 Lagwagon – Confession.wav” WAVE
TRACK 06 AUDIO
TITLE “Confession”
INDEX 01 00:00:00
FILE “07 Lagwagon – Bad Scene.wav” WAVE
TRACK 07 AUDIO
TITLE “Bad Scene”
INDEX 01 00:00:00
FILE “08 Lagwagon – Smile.wav” WAVE
TRACK 08 AUDIO
TITLE “Smile”
INDEX 01 00:00:00
FILE “09 Lagwagon – Twenty-Seven.wav” WAVE
TRACK 09 AUDIO
TITLE “Twenty-Seven”
INDEX 01 00:00:00
FILE “10 Lagwagon – Choke.wav” WAVE
TRACK 10 AUDIO
TITLE “Choke”
INDEX 01 00:00:00
TRACK 11 AUDIO
TITLE “Failure”
INDEX 00 02:44:57
FILE “11 Lagwagon – Failure.wav” WAVE
INDEX 01 00:00:00
FILE “12 Lagwagon – To All My Friends.wav” WAVE
TRACK 12 AUDIO
TITLE “To All My Friends”
INDEX 01 00:00:00


Leave a Reply

Your email address will not be published. Required fields are marked *

This site uses Akismet to reduce spam. Learn how your comment data is processed.