Lagwagon – Blaze




Artist: Lagwagon
Year: 2003
Genre: Punk
Notes: Discogs
Add. Notes:
Cover incl.: No
Encoder: FLAC
Bitrate: ~1000 kBit/s (44.1 kHz/16 Bit/s)
Log & Cue incl.: Yes
Size: 306,69 MB
Password: “slam” (without ” “)


All Downloads/Hosters are compatible

Download 1
Turbobit.net
KatFile.com
Rapidgator.net
Download 2
Turbobit.net
KatFile.com
Rapidgator.net

Tracklist:

1 - Burn - 3:15
2 - E Dagger - 2:09
3 - Dancing The Collapse - 2:15
4 - I Must Be Hateful - 3:29
5 - Falling Apart - 2:38
6 - Max Says - 3:21
7 - Billy Club - 2:48
8 - Dividers - 2:42
9 - Never Stops - 3:34
10 - Dinner And A Movie - 2:04
11 - Lullaby - 3:49
12 - Billionaire - 2:29
13 - Tomorrow Is Heartbreak - 3:00
14 - Baggage - 4:10

EAC-Log, CUE-Sheed & NFO:

Click to open spoiler
Exact Audio Copy V0.99 prebeta 4 from 23. January 2008

EAC extraction logfile from 14. May 2009, 19:07

Lagwagon / Blaze

Used drive : LITE-ON DVDRW LH-20A1L Adapter: 3 ID: 0

Read mode : Secure
Utilize accurate stream : Yes
Defeat audio cache : Yes
Make use of C2 pointers : No

Read offset correction : 6
Overread into Lead-In and Lead-Out : No
Fill up missing offset samples with silence : Yes
Delete leading and trailing silent blocks : No
Null samples used in CRC calculations : Yes
Used interface : Native Win32 interface for Win NT & 2000
Gap handling : Appended to previous track

Used output format : User Defined Encoder
Selected bitrate : 320 kBit/s
Quality : High
Add ID3 tag : No
Command line compressor : D:\Programme\Exact Audio Copy\Flac\flac.exe
Additional command line options : -V -8 -T “artist=%a” -T “title=%t” -T “album=%g” -T “date=%y” -T “tracknumber=%n” -T “genre=%m” %s

TOC of the extracted CD

Track | Start | Length | Start sector | End sector
———————————————————
1 | 0:00.00 | 3:15.32 | 0 | 14656
2 | 3:15.32 | 2:09.15 | 14657 | 24346
3 | 5:24.47 | 2:15.40 | 24347 | 34511
4 | 7:40.12 | 3:29.55 | 34512 | 50241
5 | 11:09.67 | 2:38.38 | 50242 | 62129
6 | 13:48.30 | 3:21.45 | 62130 | 77249
7 | 17:10.00 | 2:48.20 | 77250 | 89869
8 | 19:58.20 | 2:42.67 | 89870 | 102086
9 | 22:41.12 | 3:34.13 | 102087 | 118149
10 | 26:15.25 | 2:04.12 | 118150 | 127461
11 | 28:19.37 | 3:49.00 | 127462 | 144636
12 | 32:08.37 | 2:29.50 | 144637 | 155861
13 | 34:38.12 | 3:00.30 | 155862 | 169391
14 | 37:38.42 | 4:08.28 | 169392 | 188019
15 | 44:18.70 | 14:55.20 | 199420 | 266564

Track 1

Filename D:\EAC\Lagwagon – 2003 – Blaze\01 – Burn.wav

Pre-gap length 0:00:02.00

Peak level 98.8 %
Track quality 100.0 %
Test CRC 5D3E3E12
Copy CRC 5D3E3E12
Accurately ripped (confidence 17) [856C3DC5]
Copy OK

Track 2

Filename D:\EAC\Lagwagon – 2003 – Blaze\02 – E Dagger.wav

Peak level 98.8 %
Track quality 100.0 %
Test CRC AF56D422
Copy CRC AF56D422
Accurately ripped (confidence 18) [DB7EE035]
Copy OK

Track 3

Filename D:\EAC\Lagwagon – 2003 – Blaze\03 – Dancing the Collapse.wav

Peak level 98.8 %
Track quality 100.0 %
Test CRC 84A847EC
Copy CRC 84A847EC
Accurately ripped (confidence 17) [46FA3631]
Copy OK

Track 4

Filename D:\EAC\Lagwagon – 2003 – Blaze\04 – I Must Be Hateful.wav

Peak level 98.8 %
Track quality 100.0 %
Test CRC ED842331
Copy CRC ED842331
Accurately ripped (confidence 15) [E864F9E8]
Copy OK

Track 5

Filename D:\EAC\Lagwagon – 2003 – Blaze\05 – Falling Apart.wav

Peak level 100.0 %
Track quality 100.0 %
Test CRC 412ABF87
Copy CRC 412ABF87
Accurately ripped (confidence 17) [AEB8B0A4]
Copy OK

Track 6

Filename D:\EAC\Lagwagon – 2003 – Blaze\06 – Max Says.wav

Peak level 98.8 %
Track quality 100.0 %
Test CRC 4EB7143B
Copy CRC 4EB7143B
Accurately ripped (confidence 14) [7EBFF8B1]
Copy OK

Track 7

Filename D:\EAC\Lagwagon – 2003 – Blaze\07 – Billy Club.wav

Peak level 98.8 %
Track quality 100.0 %
Test CRC E42DC8D9
Copy CRC E42DC8D9
Accurately ripped (confidence 16) [65EC77D5]
Copy OK

Track 8

Filename D:\EAC\Lagwagon – 2003 – Blaze\08 – Dividers.wav

Peak level 98.8 %
Track quality 100.0 %
Test CRC C29A7EAC
Copy CRC C29A7EAC
Accurately ripped (confidence 17) [C4C97E78]
Copy OK

Track 9

Filename D:\EAC\Lagwagon – 2003 – Blaze\09 – Never Stops.wav

Peak level 98.8 %
Track quality 99.9 %
Test CRC D62BAF4E
Copy CRC D62BAF4E
Accurately ripped (confidence 17) [7EC72179]
Copy OK

Track 10

Filename D:\EAC\Lagwagon – 2003 – Blaze\10 – Dinner and a Movie.wav

Peak level 98.8 %
Track quality 100.0 %
Test CRC 404D8A69
Copy CRC 404D8A69
Accurately ripped (confidence 15) [F592E86A]
Copy OK

Track 11

Filename D:\EAC\Lagwagon – 2003 – Blaze\11 – Lullaby.wav

Peak level 98.8 %
Track quality 100.0 %
Test CRC 13B831FC
Copy CRC 13B831FC
Accurately ripped (confidence 15) [077386C7]
Copy OK

Track 12

Filename D:\EAC\Lagwagon – 2003 – Blaze\12 – Billionaire.wav

Peak level 98.8 %
Track quality 100.0 %
Test CRC A998C1F1
Copy CRC A998C1F1
Accurately ripped (confidence 15) [A3AFCA6F]
Copy OK

Track 13

Filename D:\EAC\Lagwagon – 2003 – Blaze\13 – Tomorrow Is Heartbreak.wav

Peak level 98.8 %
Track quality 100.0 %
Test CRC 4D82AF7F
Copy CRC 4D82AF7F
Accurately ripped (confidence 15) [EDFAF39B]
Copy OK

Track 14

Filename D:\EAC\Lagwagon – 2003 – Blaze\14 – Baggage.wav

Pre-gap length 0:00:01.15

Peak level 98.8 %
Track quality 99.9 %
Test CRC E51D2A84
Copy CRC E51D2A84
Accurately ripped (confidence 15) [A564CD54]
Copy OK

All tracks accurately ripped

No errors occurred

End of status report

REM GENRE Punk
REM DATE 2003
REM DISCID A50DE20F
REM COMMENT “ExactAudioCopy v0.99pb4”
PERFORMER “Lagwagon”
TITLE “Blaze”
FILE “01 – Burn.wav” WAVE
TRACK 01 AUDIO
TITLE “Burn”
PERFORMER “Lagwagon”
INDEX 01 00:00:00
FILE “02 – E Dagger.wav” WAVE
TRACK 02 AUDIO
TITLE “E Dagger”
PERFORMER “Lagwagon”
INDEX 01 00:00:00
FILE “03 – Dancing the Collapse.wav” WAVE
TRACK 03 AUDIO
TITLE “Dancing the Collapse”
PERFORMER “Lagwagon”
INDEX 01 00:00:00
FILE “04 – I Must Be Hateful.wav” WAVE
TRACK 04 AUDIO
TITLE “I Must Be Hateful”
PERFORMER “Lagwagon”
INDEX 01 00:00:00
FILE “05 – Falling Apart.wav” WAVE
TRACK 05 AUDIO
TITLE “Falling Apart ”
PERFORMER “Lagwagon”
INDEX 01 00:00:00
FILE “06 – Max Says.wav” WAVE
TRACK 06 AUDIO
TITLE “Max Says”
PERFORMER “Lagwagon”
INDEX 01 00:00:00
FILE “07 – Billy Club.wav” WAVE
TRACK 07 AUDIO
TITLE “Billy Club”
PERFORMER “Lagwagon”
INDEX 01 00:00:00
FILE “08 – Dividers.wav” WAVE
TRACK 08 AUDIO
TITLE “Dividers”
PERFORMER “Lagwagon”
INDEX 01 00:00:00
FILE “09 – Never Stops.wav” WAVE
TRACK 09 AUDIO
TITLE “Never Stops”
PERFORMER “Lagwagon”
INDEX 01 00:00:00
FILE “10 – Dinner and a Movie.wav” WAVE
TRACK 10 AUDIO
TITLE “Dinner and a Movie”
PERFORMER “Lagwagon”
INDEX 01 00:00:00
FILE “11 – Lullaby.wav” WAVE
TRACK 11 AUDIO
TITLE “Lullaby”
PERFORMER “Lagwagon”
INDEX 01 00:00:00
FILE “12 – Billionaire.wav” WAVE
TRACK 12 AUDIO
TITLE “Billionaire”
PERFORMER “Lagwagon”
INDEX 01 00:00:00
FILE “13 – Tomorrow Is Heartbreak.wav” WAVE
TRACK 13 AUDIO
TITLE “Tomorrow Is Heartbreak”
PERFORMER “Lagwagon”
INDEX 01 00:00:00
TRACK 14 AUDIO
TITLE “Baggage”
PERFORMER “Lagwagon”
INDEX 00 02:59:15
FILE “14 – Baggage.wav” WAVE
INDEX 01 00:00:00
TRACK 15 MODEx/2xxx
TITLE “DATA track”
PERFORMER “Lagwagon”
FLAGS DCP
INDEX 00 04:08:28


Leave a Reply

Your email address will not be published. Required fields are marked *

This site uses Akismet to reduce spam. Learn how your comment data is processed.