Kreator – Voices Of Transgression – A 90s Retrospective




[Total: 0    Average: 0/5]

Artist: Kreator
Year: 1999
Genre: Metal
Notes: Discogs
Add. Notes:
Cover incl.: Yes
Encoder: FLAC
Bitrate: ~1000 kBit/s (44.1 kHz/16 Bit/s)
Log & Cue incl.: Yes
Size: 469,19 MB
Password: “slam” (without ” “)


All Downloads/Hosters are compatible

Download 1
Share-online.biz
KatFile.com
Rapidgator.net
Download 2
Share-online.biz
KatFile.com
Rapidgator.net

Tracklist:

1 - Lucretia (My Reflection) - 5:23
2 - The Chosen Few - 4:30
3 - Isolation (Edit) - 4:15
4 - Leave This World Behind - 3:29
5 - Golden Age - 4:51
6 - Bomb Threat - 1:46
7 - Phobia - 3:22
8 - Whatever It May Take - 3:48
9 - Renewal - 4:40
10 - Lost - 3:34
11 - Hate Inside Your Head - 3:39
12 - Inferno - 2:28
13 - Outcast - 4:51
14 - State Oppression - 1:38
15 - Endorama - 3:20
16 - Black Sunrise - 4:31
17 - As We Watch The West - 4:57

EAC-Log, CUE-Sheed & NFO:

Click to open spoiler
Exact Audio Copy V0.99 prebeta 3 from 28. July 2007

Отчёт EAC об извлечении, выполненном 31. августа 2011, 17:03

Kreator / Voices of Transgression – A 90s Retrospective

Дисковод: TSSTcorpCDDVDW SH-S202H Adapter: 0 ID: 0

Режим чтения : Достоверность
Использование точного потока : Да
Отключение кэша аудио : Да
Использование указателей C2 : Нет

Коррекция смещения при чтении : 6
Способность читать области Lead-in и Lead-out : Нет
Заполнение пропущенных сэмплов тишиной : Да
Удаление блоков с тишиной в начале и конце : Нет
При вычислениях CRC использовались нулевые сэмплы : Да
Интерфейс : Установленный внешний ASPI-интерфейс

Выходной формат : Внутренние WAV-операции
Формат сэмплов : 44.100 Гц; 16 бит; стерео

TOC извлечённого CD

Трек | Старт | Длительность | Начальный сектор | Конечный сектор
———————————————————————
1 | 0:00.00 | 5:23.35 | 0 | 24259
2 | 5:23.35 | 4:30.60 | 24260 | 44569
3 | 9:54.20 | 4:15.37 | 44570 | 63731
4 | 14:09.57 | 3:29.45 | 63732 | 79451
5 | 17:39.27 | 4:51.03 | 79452 | 101279
6 | 22:30.30 | 1:46.62 | 101280 | 109291
7 | 24:17.17 | 3:22.25 | 109292 | 124466
8 | 27:39.42 | 3:48.53 | 124467 | 141619
9 | 31:28.20 | 4:40.10 | 141620 | 162629
10 | 36:08.30 | 3:34.27 | 162630 | 178706
11 | 39:42.57 | 3:39.58 | 178707 | 195189
12 | 43:22.40 | 2:28.02 | 195190 | 206291
13 | 45:50.42 | 4:51.63 | 206292 | 228179
14 | 50:42.30 | 1:38.25 | 228180 | 235554
15 | 52:20.55 | 3:20.52 | 235555 | 250606
16 | 55:41.32 | 4:31.33 | 250607 | 270964
17 | 60:12.65 | 4:57.00 | 270965 | 293239

Характеристики диапазона извлечения и сообщения об ошибках

Выбранный диапазон

Имя файла C:\Downloads\EAC\Kreator – Voices of Transgression – A 90s Retrospective.wav

Пиковый уровень 100.0 %
Качество диапазона 100.0 %
CRC теста FED08530
CRC копии FED08530
Копирование… OK

Ошибок не произошло

AccurateRip: сводка

Трек 1 точное извлечение (доверие 4) [750817E0]
Трек 2 точное извлечение (доверие 4) [075F1E9C]
Трек 3 точное извлечение (доверие 4) [C0C43C17]
Трек 4 точное извлечение (доверие 4) [804DDF6F]
Трек 5 точное извлечение (доверие 4) [FA5AC77B]
Трек 6 точное извлечение (доверие 4) [E6E14FC3]
Трек 7 точное извлечение (доверие 4) [F61A4DBE]
Трек 8 точное извлечение (доверие 4) [7F0609AE]
Трек 9 точное извлечение (доверие 4) [71FA1015]
Трек 10 точное извлечение (доверие 4) [52A6EBB3]
Трек 11 точное извлечение (доверие 4) [D7AE7806]
Трек 12 точное извлечение (доверие 4) [61E3D1CA]
Трек 13 точное извлечение (доверие 4) [4EDB32A4]
Трек 14 точное извлечение (доверие 4) [B3E75B09]
Трек 15 точное извлечение (доверие 4) [8DEF9F17]
Трек 16 точное извлечение (доверие 4) [79A0EF72]
Трек 17 точное извлечение (доверие 4) [0DEA2F8D]

Все треки извлечены точно

Конец отчёта

REM GENRE “Thrash Metal”
REM DATE 1999
REM DISCID DB0F4511
REM COMMENT “ExactAudioCopy v0.99pb3”
PERFORMER “Kreator”
TITLE “Voices Of Transgression – A 90s Retrospective (74321 68773 2)”
FILE “Kreator – Voices Of Transgression (74321 68773 2).flac” WAVE
TRACK 01 AUDIO
TITLE “Lucretia (My Reflection)”
PERFORMER “Kreator”
INDEX 01 00:00:00
TRACK 02 AUDIO
TITLE “The Chosen Few”
PERFORMER “Kreator”
INDEX 00 05:22:32
INDEX 01 05:23:35
TRACK 03 AUDIO
TITLE “Isolation (Edit)”
PERFORMER “Kreator”
INDEX 00 09:53:55
INDEX 01 09:54:20
TRACK 04 AUDIO
TITLE “Leave This World Behind”
PERFORMER “Kreator”
INDEX 00 14:09:47
INDEX 01 14:09:57
TRACK 05 AUDIO
TITLE “Golden Age”
PERFORMER “Kreator”
INDEX 00 17:39:12
INDEX 01 17:39:27
TRACK 06 AUDIO
TITLE “Bomb Threat”
PERFORMER “Kreator”
INDEX 00 22:29:54
INDEX 01 22:30:30
TRACK 07 AUDIO
TITLE “Phobia”
PERFORMER “Kreator”
INDEX 00 24:17:00
INDEX 01 24:17:17
TRACK 08 AUDIO
TITLE “Whatever It May Take”
PERFORMER “Kreator”
INDEX 00 27:38:62
INDEX 01 27:39:42
TRACK 09 AUDIO
TITLE “Renewal”
PERFORMER “Kreator”
INDEX 00 31:27:27
INDEX 01 31:28:20
TRACK 10 AUDIO
TITLE “Lost”
PERFORMER “Kreator”
INDEX 00 36:07:30
INDEX 01 36:08:30
TRACK 11 AUDIO
TITLE “Hate Inside Your Head”
PERFORMER “Kreator”
INDEX 00 39:42:12
INDEX 01 39:42:57
TRACK 12 AUDIO
TITLE “Inferno (Previously unreleased)”
PERFORMER “Kreator”
INDEX 00 43:21:25
INDEX 01 43:22:40
TRACK 13 AUDIO
TITLE “Outcast”
PERFORMER “Kreator”
INDEX 00 45:49:67
INDEX 01 45:50:42
TRACK 14 AUDIO
TITLE “State Opression (Previously unreleased in Europe)”
PERFORMER “Kreator”
INDEX 00 50:41:50
INDEX 01 50:42:30
TRACK 15 AUDIO
TITLE “Endorama”
PERFORMER “Kreator”
INDEX 00 52:19:70
INDEX 01 52:20:55
TRACK 16 AUDIO
TITLE “Black Sunrise”
PERFORMER “Kreator”
INDEX 00 55:40:67
INDEX 01 55:41:32
TRACK 17 AUDIO
TITLE “As We Watch The West (Previously unreleased)”
PERFORMER “Kreator”
INDEX 00 60:12:15
INDEX 01 60:12:65


Spread the Download

Leave a Reply

Your email address will not be published. Required fields are marked *

Enter the text from the image below
 

This site uses Akismet to reduce spam. Learn how your comment data is processed.