Kreator – Violent Revolution (Limited Edition)




[Total: 0    Average: 0/5]

Artist: Kreator
Year: 2001
Genre: Metal
Notes: Discogs
Add. Notes: Limited Edition
Cover incl.: Yes
Encoder: FLAC
Bitrate: ~1000 kBit/s (44.1 kHz/16 Bit/s)
Log & Cue incl.: Yes
Size: 534,26 MB
Password: “slam” (without ” “)


All Downloads/Hosters are compatible

Download 1
Share-online.biz
KatFile.com
Rapidgator.net
Download 2
Share-online.biz
KatFile.com
Rapidgator.net

Tracklist:

1 - Reconquering The Throne - 4:13
2 - The Patriarch - 0:52
3 - Violent Revolution - 4:55
4 - All Of The Same Blood - 6:12
5 - Servant In Heaven - King In Hell - 5:10
6 - Second Awakening - 4:48
7 - Ghetto War - 5:05
8 - Replicas Of Life - 7:34
9 - Slave Machinery - 3:58
10 - Bitter Sweet Revenge - 5:25
11 - Mind On Fire - 3:57
12 - System Decay - 4:33
13 - Violent Revolution (Demo Version) - 5:56

EAC-Log, CUE-Sheed & NFO:

Click to open spoiler
Exact Audio Copy V1.0 beta 3 from 29. August 2011

EAC extraction logfile from 15. September 2013, 21:05

Kreator / Violent Revolution

Used drive : Optiarc DVD RW AD-7203A Adapter: 3 ID: 1

Read mode : Secure
Utilize accurate stream : Yes
Defeat audio cache : Yes
Make use of C2 pointers : No

Read offset correction : 48
Overread into Lead-In and Lead-Out : No
Fill up missing offset samples with silence : Yes
Delete leading and trailing silent blocks : No
Null samples used in CRC calculations : Yes
Used interface : Native Win32 interface for Win NT & 2000

Used output format : User Defined Encoder
Selected bitrate : 768 kBit/s
Quality : High
Add ID3 tag : No
Command line compressor : C:\Program Files (x86)\Exact Audio Copy\FLAC\FLAC.EXE
Additional command line options : -6 -V -T “ARTIST=%artist%” -T “TITLE=%title%” -T “ALBUM=%albumtitle%” -T “DATE=%year%” -T “TRACKNUMBER=%tracknr%” -T “GENRE=%genre%” -T “COMMENT=%comment%” -T “BAND=%albuminterpret%” -T “ALBUMARTIST=%albuminterpret%” -T “COMPOSER=%composer%” %haslyrics%–tag-from-file=LYRICS=”%lyricsfile%”%haslyrics% -T “DISCNUMBER=%cdnumber%” -T “TOTALDISCS=%totalcds%” -T “TOTALTRACKS=%numtracks%” %hascover%–picture=”%coverfile%”%hascover% %source% -o %dest%

TOC of the extracted CD

Track | Start | Length | Start sector | End sector
———————————————————
1 | 0:00.00 | 4:13.15 | 0 | 18989
2 | 4:13.15 | 0:52.29 | 18990 | 22918
3 | 5:05.44 | 4:54.60 | 22919 | 45028
4 | 10:00.29 | 6:12.30 | 45029 | 72958
5 | 16:12.59 | 5:09.29 | 72959 | 96162
6 | 21:22.13 | 4:47.73 | 96163 | 117760
7 | 26:10.11 | 5:05.10 | 117761 | 140645
8 | 31:15.21 | 7:34.19 | 140646 | 174714
9 | 38:49.40 | 3:58.05 | 174715 | 192569
10 | 42:47.45 | 5:25.06 | 192570 | 216950
11 | 48:12.51 | 3:57.01 | 216951 | 234726
12 | 52:09.52 | 5:33.65 | 234727 | 259766
13 | 57:43.42 | 5:55.57 | 259767 | 286448

Range status and errors

Selected range

Filename C:\records\KREATOR 3 album collection\2001 Violent Revolution (ltd. digi)\Kreator – Violent Revolution.wav

Peak level 98.8 %
Extraction speed 4.3 X
Range quality 99.9 %
Test CRC 414D9E14
Copy CRC 414D9E14
Copy OK

No errors occurred

AccurateRip summary

Track 1 accurately ripped (confidence 6) [6291D907] (AR v2)
Track 2 accurately ripped (confidence 6) [7CFB4D40] (AR v2)
Track 3 accurately ripped (confidence 6) [AA351000] (AR v2)
Track 4 accurately ripped (confidence 6) [C7081D45] (AR v2)
Track 5 accurately ripped (confidence 6) [45C7476F] (AR v2)
Track 6 accurately ripped (confidence 6) [4CA32977] (AR v2)
Track 7 accurately ripped (confidence 6) [C4FE8451] (AR v2)
Track 8 accurately ripped (confidence 6) [0192A7FE] (AR v2)
Track 9 accurately ripped (confidence 6) [2667436D] (AR v2)
Track 10 accurately ripped (confidence 6) [746279EE] (AR v2)
Track 11 accurately ripped (confidence 6) [813F3D93] (AR v2)
Track 12 accurately ripped (confidence 6) [3002EBCB] (AR v2)
Track 13 accurately ripped (confidence 6) [51E081FD] (AR v2)

All tracks accurately ripped

End of status report

==== Log checksum C51B952DE2FCE3DD949BACA0FA4881DDA49FACF6008707A9A0FB37ED482A68C7 ====

REM GENRE Thrash Metal
REM DATE 2001
REM DISCID B90EEB0D
REM COMMENT ExactAudioCopy v1.0b3
PERFORMER “”
TITLE “Violent Revolution (SPV 087-72540 CD)”
FILE “Kreator – Violent Revolution (SPV 087-72540 CD).flac” WAVE
TRACK 01 AUDIO
TITLE “Reconquering The Throne”
PERFORMER “Kreator”
INDEX 01 00:00:00
TRACK 02 AUDIO
TITLE “The Patriarch”
PERFORMER “Kreator”
INDEX 01 04:13:15
TRACK 03 AUDIO
TITLE “Violent Revolution”
PERFORMER “Kreator”
INDEX 01 05:05:44
TRACK 04 AUDIO
TITLE “All Of The Same Blood”
PERFORMER “Kreator”
INDEX 01 10:00:29
TRACK 05 AUDIO
TITLE “Servant In Heaven – King In Hell”
PERFORMER “Kreator”
INDEX 01 16:12:59
TRACK 06 AUDIO
TITLE “Second Awakening”
PERFORMER “Kreator”
INDEX 00 21:20:43
INDEX 01 21:22:13
TRACK 07 AUDIO
TITLE “Ghetto War”
PERFORMER “Kreator”
INDEX 01 26:10:11
TRACK 08 AUDIO
TITLE “Replicas Of Life”
PERFORMER “Kreator”
INDEX 00 31:12:44
INDEX 01 31:15:21
TRACK 09 AUDIO
TITLE “Slave Machinery”
PERFORMER “Kreator”
INDEX 00 38:47:06
INDEX 01 38:49:40
TRACK 10 AUDIO
TITLE “Bitter Sweet Revenge”
PERFORMER “Kreator”
INDEX 00 42:45:66
INDEX 01 42:47:45
TRACK 11 AUDIO
TITLE “Mind Of Fire”
PERFORMER “Kreator”
INDEX 00 48:10:12
INDEX 01 48:12:51
TRACK 12 AUDIO
TITLE “System Decay”
PERFORMER “Kreator”
INDEX 01 52:09:52
TRACK 13 AUDIO
TITLE “Violent Revolution (Demo) (Bonus track)”
PERFORMER “Kreator”
INDEX 00 56:43:68
INDEX 01 57:43:42


Spread the Download

Leave a Reply

Your email address will not be published. Required fields are marked *

Enter the text from the image below
 

This site uses Akismet to reduce spam. Learn how your comment data is processed.