Kreator – Violent Revolution (Japanese Edition)




Artist: Kreator
Year: 2001
Genre: Metal
Notes: Discogs
Add. Notes: Japanese Edition
Cover incl.: Yes
Encoder: FLAC
Bitrate: ~1000 kBit/s (44.1 kHz/16 Bit/s)
Log & Cue incl.: Yes
Size: 469,98 MB
Password: “slam” (without ” “)


All Downloads/Hosters are compatible

Download 1
Turbobit.net
Rapidgator.net
KatFile.com
UploadRar.com
Download 2
Turbobit.net
Rapidgator.net
KatFile.com
UploadRar.com
Download 3
Turbobit.net
Rapidgator.net
KatFile.com
UploadRar.com

Tracklist:

1 - Reconquering The Throne - 4:12
2 - The Patriarch - 0:52
3 - Violent Revolution - 4:54
4 - All Of The Same Blood - 6:12
5 - Servant In Heaven - King In Hell - 5:07
6 - Second Awakening - 4:47
7 - Ghetto War - 5:02
8 - Replicas Of Life - 7:31
9 - Slave Machinery - 3:55
10 - Bitter Sweet Revenge - 5:22
11 - Mind On Fire - 3:56
12 - System Decay - 4:34

EAC-Log, CUE-Sheed & NFO:

Click to open spoiler
Exact Audio Copy V0.99 prebeta 3 from 28. July 2007

Отчёт EAC об извлечении, выполненном 26. июня 2010, 16:52

Kreator / Violent Revolution [CRCL-4787]

Дисковод: TSSTcorpCDDVDW SH-S202H Adapter: 0 ID: 0

Режим чтения : Достоверность
Использование точного потока : Да
Отключение кэша аудио : Да
Использование указателей C2 : Нет

Коррекция смещения при чтении : 6
Способность читать области Lead-in и Lead-out : Нет
Заполнение пропущенных сэмплов тишиной : Да
Удаление блоков с тишиной в начале и конце : Нет
При вычислениях CRC использовались нулевые сэмплы : Да
Интерфейс : Установленный внешний ASPI-интерфейс

Выходной формат : Внутренние WAV-операции
Формат сэмплов : 44.100 Гц; 16 бит; стерео

TOC извлечённого CD

Трек | Старт | Длительность | Начальный сектор | Конечный сектор
———————————————————————
1 | 0:00.00 | 4:12.47 | 0 | 18946
2 | 4:12.47 | 0:52.38 | 18947 | 22884
3 | 5:05.10 | 4:54.60 | 22885 | 44994
4 | 9:59.70 | 6:12.30 | 44995 | 72924
5 | 16:12.25 | 5:09.37 | 72925 | 96136
6 | 21:21.62 | 4:48.08 | 96137 | 117744
7 | 26:09.70 | 5:05.02 | 117745 | 140621
8 | 31:14.72 | 7:34.28 | 140622 | 174699
9 | 38:49.25 | 3:58.07 | 174700 | 192556
10 | 42:47.32 | 5:25.10 | 192557 | 216941
11 | 48:12.42 | 3:57.00 | 216942 | 234716
12 | 52:09.42 | 4:34.20 | 234717 | 255286

Характеристики диапазона извлечения и сообщения об ошибках

Выбранный диапазон

Имя файла C:\Downloads\EAC\Kreator – Violent Revolution [CRCL-4787].wav

Пиковый уровень 99.8 %
Качество диапазона 100.0 %
CRC теста 1DDBA402
CRC копии 1DDBA402
Копирование… OK

Ошибок не произошло

AccurateRip: сводка

Трек 1 нет в базе данных
Трек 2 нет в базе данных
Трек 3 нет в базе данных
Трек 4 нет в базе данных
Трек 5 нет в базе данных
Трек 6 нет в базе данных
Трек 7 нет в базе данных
Трек 8 нет в базе данных
Трек 9 нет в базе данных
Трек 10 нет в базе данных
Трек 11 нет в базе данных
Трек 12 нет в базе данных

Ни одного трека нет в базе AccurateRip

Конец отчёта

REM GENRE “Thrash Metal”
REM DATE 2001
REM DISCID A20D4B0C
REM COMMENT “ExactAudioCopy v0.99pb3”
PERFORMER “Kreator”
TITLE “Violent Revolution (CRCL-4787)”
FILE “Kreator – Violent Revolution (CRCL-4787).flac” WAVE
TRACK 01 AUDIO
TITLE “Reconquering The Throne”
PERFORMER “Kreator”
INDEX 01 00:00:00
TRACK 02 AUDIO
TITLE “The Patriarch”
PERFORMER “Kreator”
INDEX 01 04:12:47
TRACK 03 AUDIO
TITLE “Violent Revolution”
PERFORMER “Kreator”
INDEX 01 05:05:10
TRACK 04 AUDIO
TITLE “All Of The Same Blood”
PERFORMER “Kreator”
INDEX 01 09:59:70
TRACK 05 AUDIO
TITLE “Servant In Heaven – King In Hell”
PERFORMER “Kreator”
INDEX 01 16:12:25
TRACK 06 AUDIO
TITLE “Second Awakening”
PERFORMER “Kreator”
INDEX 00 21:20:00
INDEX 01 21:21:62
TRACK 07 AUDIO
TITLE “Ghetto War”
PERFORMER “Kreator”
INDEX 01 26:09:70
TRACK 08 AUDIO
TITLE “Replicas Of Life”
PERFORMER “Kreator”
INDEX 00 31:12:55
INDEX 01 31:14:72
TRACK 09 AUDIO
TITLE “Slave Machinery”
PERFORMER “Kreator”
INDEX 00 38:46:47
INDEX 01 38:49:25
TRACK 10 AUDIO
TITLE “Bitter Sweet Revenge”
PERFORMER “Kreator”
INDEX 00 42:45:57
INDEX 01 42:47:32
TRACK 11 AUDIO
TITLE “Mind On Fire”
PERFORMER “Kreator”
INDEX 00 48:09:60
INDEX 01 48:12:42
TRACK 12 AUDIO
TITLE “System Decay”
PERFORMER “Kreator”
INDEX 01 52:09:42


Leave a Reply

Your email address will not be published. Required fields are marked *

This site uses Akismet to reduce spam. Learn how your comment data is processed.