Kreator – Terror Prevails Live At Rock Hard Festival




[Total: 0    Average: 0/5]

Artist: Kreator
Year: 2010
Genre: Metal
Notes: Discogs
Add. Notes:
Cover incl.: Yes
Encoder: FLAC
Bitrate: ~1000 kBit/s (44.1 kHz/16 Bit/s)
Log & Cue incl.: Yes
Size: 317,15 MB
Password: “slam” (without ” “)


All Downloads/Hosters are compatible

Download 1
Share-online.biz
KatFile.com
Rapidgator.net
NitroFlare.com
Download 2
Share-online.biz
KatFile.com
Rapidgator.net
NitroFlare.com

Tracklist:

1 - Intro - Choir Of The Damned - 1:30
2 - The Pestilence - 7:35
3 - Hordes Of Chaos - 5:07
4 - Phobia - 3:22
5 - Enemy Of God - 5:51
6 - Impossible Brutality - 4:37
7 - Endless Pain - 2:34
8 - Pleasure To Kill - 3:28
9 - Terrible Certainty - 5:15

EAC-Log, CUE-Sheed & NFO:

Click to open spoiler
Exact Audio Copy V1.0 beta 3 from 29. August 2011

EAC extraction logfile from 23. August 2013, 14:59

Kreator / Terror Prevails: Live At Rock Hard Festival

Used drive : PIONEER DVD-RW DVR-112D Adapter: 0 ID: 0

Read mode : Secure
Utilize accurate stream : Yes
Defeat audio cache : Yes
Make use of C2 pointers : No

Read offset correction : 48
Overread into Lead-In and Lead-Out : No
Fill up missing offset samples with silence : Yes
Delete leading and trailing silent blocks : No
Null samples used in CRC calculations : Yes
Used interface : Installed external ASPI interface

Used output format : User Defined Encoder
Selected bitrate : 1024 kBit/s
Quality : High
Add ID3 tag : No
Command line compressor : C:\Program Files\Exact Audio Copy\FLAC\FLAC.EXE
Additional command line options : -V -8 -T “Date=%year%” -T “Genre=%genre%” %source%

TOC of the extracted CD

Track | Start | Length | Start sector | End sector
———————————————————
1 | 0:00.00 | 0:51.61 | 0 | 3885
2 | 0:51.61 | 8:13.34 | 3886 | 40894
3 | 9:05.20 | 5:06.73 | 40895 | 63917
4 | 14:12.18 | 3:22.04 | 63918 | 79071
5 | 17:34.22 | 5:50.57 | 79072 | 105378
6 | 23:25.04 | 4:37.27 | 105379 | 126180
7 | 28:02.31 | 2:33.65 | 126181 | 137720
8 | 30:36.21 | 3:28.50 | 137721 | 153370
9 | 34:04.71 | 5:15.37 | 153371 | 177032

Range status and errors

Selected range

Filename C:\CDRip by Deminbek\Kreator – Terror Prevails- Live At Rock Hard Festival.wav

Peak level 100.0 %
Extraction speed 6.9 X
Range quality 100.0 %
Test CRC F9D1AB5C
Copy CRC F9D1AB5C
Copy OK

No errors occurred

AccurateRip summary

Track 1 accurately ripped (confidence 22) [1AE12A15] (AR v2)
Track 2 accurately ripped (confidence 22) [A2C1971C] (AR v2)
Track 3 accurately ripped (confidence 22) [B1C743E9] (AR v2)
Track 4 accurately ripped (confidence 22) [2DEC0F89] (AR v2)
Track 5 accurately ripped (confidence 22) [52A3B5C5] (AR v2)
Track 6 accurately ripped (confidence 22) [FBD40C70] (AR v2)
Track 7 accurately ripped (confidence 22) [6D81409C] (AR v2)
Track 8 accurately ripped (confidence 22) [F678433E] (AR v2)
Track 9 accurately ripped (confidence 22) [8C1B7C49] (AR v2)

All tracks accurately ripped

End of status report

—- CUETools DB Plugin V2.1.3

[CTDB TOCID: wKPVOo6VeLphPUaoPfH07KUzzLQ-] found, Submit result: wKPVOo6VeLphPUaoPfH07KUzzLQ- has been confirmed
[1fea1ee6] (33/33) Accurately ripped

==== Log checksum DAF45DDB97B70C43150ABF2B4496AC932DBAFB596CA77072980A40A34141FB5A ====

REM GENRE “Thrash Metal”
REM DATE 2010
REM DISCID 76093809
REM COMMENT “ExactAudioCopy v1.0b3”
PERFORMER “Kreator”
TITLE “Terror Prevails: Live At Rock Hard Festival”
FILE “Kreator – Terror Prevails – Live At Rock Hard Festival.flac” WAVE
TRACK 01 AUDIO
TITLE “Intro: Choir Of The Damned”
PERFORMER “Kreator”
INDEX 01 00:00:00
TRACK 02 AUDIO
TITLE “The Pestilence”
PERFORMER “Kreator”
INDEX 01 00:51:61
TRACK 03 AUDIO
TITLE “Hordes Of Chaos (A Necrologue For The Elite)”
PERFORMER “Kreator”
INDEX 01 09:05:20
TRACK 04 AUDIO
TITLE “Phobia”
PERFORMER “Kreator”
INDEX 01 14:12:18
TRACK 05 AUDIO
TITLE “Enemy Of God”
PERFORMER “Kreator”
INDEX 01 17:34:22
TRACK 06 AUDIO
TITLE “Impossible Brutality”
PERFORMER “Kreator”
INDEX 01 23:25:04
TRACK 07 AUDIO
TITLE “Endless Pain”
PERFORMER “Kreator”
INDEX 01 28:02:31
TRACK 08 AUDIO
TITLE “Pleasure To Kill”
PERFORMER “Kreator”
INDEX 01 30:36:21
TRACK 09 AUDIO
TITLE “Terrible Certainty”
PERFORMER “Kreator”
INDEX 01 34:04:71


Spread the Download

Leave a Reply

Your email address will not be published. Required fields are marked *

Enter the text from the image below
 

This site uses Akismet to reduce spam. Learn how your comment data is processed.