Kreator – Terror Prevails (Live At Rock Hard Festival), Pt. 2




Artist: Kreator
Year: 2012
Genre: Rock
Notes: Discogs
Add. Notes:
Cover incl.: Yes
Encoder: FLAC
Bitrate: ~1000 kBit/s (44.1 kHz/16 Bit/s)
Log & Cue incl.: Yes
Size: 328,27 MB
Password: “slam” (without ” “)


All Downloads/Hosters are compatible

Download 1
Turbobit.net
Rapidgator.net
KatFile.com
UploadRar.com
Download 2
Turbobit.net
Rapidgator.net
KatFile.com
UploadRar.com

Tracklist:

1 - Extreme Aggressions - 6:08
2 - Coma Of Souls - 4:31
3 - Amok Run - 4:32
4 - Violent Revolution - 6:31
5 - Demon Prince - 6:00
6 - When The Sun Burns Red - 6:20
7 - Flag Of Hate - 2:54
8 - Tormentor - 4:21

EAC-Log, CUE-Sheed & NFO:

Click to open spoiler
Exact Audio Copy V1.0 beta 3 from 29. August 2011

EAC extraction logfile from 23. August 2013, 15:14

Kreator / Terror Prevails: Live At Rock Hard Festival, Pt. 2

Used drive : PIONEER DVD-RW DVR-112D Adapter: 0 ID: 0

Read mode : Secure
Utilize accurate stream : Yes
Defeat audio cache : Yes
Make use of C2 pointers : No

Read offset correction : 48
Overread into Lead-In and Lead-Out : No
Fill up missing offset samples with silence : Yes
Delete leading and trailing silent blocks : No
Null samples used in CRC calculations : Yes
Used interface : Installed external ASPI interface

Used output format : User Defined Encoder
Selected bitrate : 1024 kBit/s
Quality : High
Add ID3 tag : No
Command line compressor : C:\Program Files\Exact Audio Copy\FLAC\FLAC.EXE
Additional command line options : -V -8 -T “Date=%year%” -T “Genre=%genre%” %source%

TOC of the extracted CD

Track | Start | Length | Start sector | End sector
———————————————————
1 | 0:00.00 | 6:08.31 | 0 | 27630
2 | 6:08.31 | 4:31.49 | 27631 | 48004
3 | 10:40.05 | 4:32.33 | 48005 | 68437
4 | 15:12.38 | 6:31.14 | 68438 | 97776
5 | 21:43.52 | 6:00.15 | 97777 | 124791
6 | 27:43.67 | 6:20.37 | 124792 | 153328
7 | 34:04.29 | 2:54.40 | 153329 | 166418
8 | 36:58.69 | 4:21.29 | 166419 | 186022

Range status and errors

Selected range

Filename C:\CDRip by Deminbek\Kreator – Terror Prevails- Live At Rock Hard Festival, Pt. 2.wav

Peak level 100.0 %
Extraction speed 6.9 X
Range quality 100.0 %
Test CRC 6E7D5482
Copy CRC 6E7D5482
Copy OK

No errors occurred

AccurateRip summary

Track 1 accurately ripped (confidence 23) [421D76C7] (AR v2)
Track 2 accurately ripped (confidence 22) [563682F8] (AR v2)
Track 3 accurately ripped (confidence 23) [E25DE509] (AR v2)
Track 4 accurately ripped (confidence 23) [2C3BEDC9] (AR v2)
Track 5 accurately ripped (confidence 23) [793E3D0B] (AR v2)
Track 6 accurately ripped (confidence 23) [AC3BB10F] (AR v2)
Track 7 accurately ripped (confidence 23) [63A38E39] (AR v2)
Track 8 accurately ripped (confidence 23) [BB1AA7BE] (AR v2)

All tracks accurately ripped

End of status report

—- CUETools DB Plugin V2.1.3

[CTDB TOCID: CxWbBa_8IUjSziSDRwq9CgKYHj4-] found, Submit result: CxWbBa_8IUjSziSDRwq9CgKYHj4- has been confirmed
[40339dd4] (22/23) Accurately ripped
[f68613cc] (01/23) No match

==== Log checksum 9C060855425CDC8E08CA0B0F96AFD233A86F30C0B173373E41459A7FB1A4A947 ====
REM GENRE “Thrash Metal”
REM DATE 2012
REM DISCID 5309B008
REM COMMENT “ExactAudioCopy v1.0b3”
PERFORMER “Kreator”
TITLE “Terror Prevails: Live At Rock Hard Festival, Pt. 2”
FILE “Kreator – Terror Prevails – Live At Rock Hard Festival, Pt. 2.flac” WAVE
TRACK 01 AUDIO
TITLE “Extreme Aggression”
PERFORMER “Kreator”
INDEX 01 00:00:00
TRACK 02 AUDIO
TITLE “Coma Of Souls”
PERFORMER “Kreator”
INDEX 01 06:08:31
TRACK 03 AUDIO
TITLE “Amok Run”
PERFORMER “Kreator”
INDEX 01 10:40:05
TRACK 04 AUDIO
TITLE “Violent Revolution”
PERFORMER “Kreator”
INDEX 01 15:12:38
TRACK 05 AUDIO
TITLE “Demon Prince”
PERFORMER “Kreator”
INDEX 01 21:43:52
TRACK 06 AUDIO
TITLE “When The Sun Burns Red”
PERFORMER “Kreator”
INDEX 01 27:43:67
TRACK 07 AUDIO
TITLE “Flag Of Hate”
PERFORMER “Kreator”
INDEX 01 34:04:29
TRACK 08 AUDIO
TITLE “Tormentor”
PERFORMER “Kreator”
INDEX 01 36:58:69


Leave a Reply

Your email address will not be published. Required fields are marked *

This site uses Akismet to reduce spam. Learn how your comment data is processed.