Kreator – Terrible Certainty




Artist: Kreator
Year: 1987
Genre: Metal
Notes: Discogs
Add. Notes:
Cover incl.: Yes
Encoder: FLAC
Bitrate: ~1000 kBit/s (44.1 kHz/16 Bit/s)
Log & Cue incl.: Yes
Size: 277,17 MB
Password: “slam” (without ” “)


All Downloads/Hosters are compatible

Download 1
Turbobit.net
Rapidgator.net
KatFile.com
UploadRar.com
Download 2
Turbobit.net
Rapidgator.net
KatFile.com
UploadRar.com
Download 3
Turbobit.net
Rapidgator.net
KatFile.com
UploadRar.com

Tracklist:

1 - Blind Faith - 4:04
2 - Storming With Menace - 4:23
3 - Terrible Certainty - 4:26
4 - As The World Burns - 3:48
5 - Toxic Trace - 5:30
6 - No Escape - 4:58
7 - One Of Us - 3:59
8 - Behind The Mirror - 4:31

EAC-Log, CUE-Sheed & NFO:

Click to open spoiler
Exact Audio Copy V1.0 beta 3 from 29. August 2011

EAC extraction logfile from 22. September 2013, 16:13

Kreator / Terrible Certainty

Used drive : Optiarc DVD RW AD-7203A Adapter: 3 ID: 1

Read mode : Secure
Utilize accurate stream : Yes
Defeat audio cache : Yes
Make use of C2 pointers : No

Read offset correction : 48
Overread into Lead-In and Lead-Out : No
Fill up missing offset samples with silence : Yes
Delete leading and trailing silent blocks : No
Null samples used in CRC calculations : Yes
Used interface : Native Win32 interface for Win NT & 2000

Used output format : User Defined Encoder
Selected bitrate : 768 kBit/s
Quality : High
Add ID3 tag : No
Command line compressor : C:\Program Files (x86)\Exact Audio Copy\FLAC\FLAC.EXE
Additional command line options : -6 -V -T “ARTIST=%artist%” -T “TITLE=%title%” -T “ALBUM=%albumtitle%” -T “DATE=%year%” -T “TRACKNUMBER=%tracknr%” -T “GENRE=%genre%” -T “COMMENT=%comment%” -T “BAND=%albuminterpret%” -T “ALBUMARTIST=%albuminterpret%” -T “COMPOSER=%composer%” %haslyrics%–tag-from-file=LYRICS=”%lyricsfile%”%haslyrics% -T “DISCNUMBER=%cdnumber%” -T “TOTALDISCS=%totalcds%” -T “TOTALTRACKS=%numtracks%” %hascover%–picture=”%coverfile%”%hascover% %source% -o %dest%

TOC of the extracted CD

Track | Start | Length | Start sector | End sector
———————————————————
1 | 0:00.00 | 4:10.50 | 0 | 18799
2 | 4:10.50 | 4:28.00 | 18800 | 38899
3 | 8:38.50 | 4:30.25 | 38900 | 59174
4 | 13:09.00 | 3:51.50 | 59175 | 76549
5 | 17:00.50 | 5:35.00 | 76550 | 101674
6 | 22:35.50 | 5:02.50 | 101675 | 124374
7 | 27:38.25 | 4:02.25 | 124375 | 142549
8 | 31:40.50 | 4:32.45 | 142550 | 162994

Range status and errors

Selected range

Filename C:\records\KREATOR 5 albums collection\1987 Terrible Certainty\Kreator – Terrible Certainty.wav

Peak level 100.0 %
Extraction speed 3.4 X
Range quality 99.9 %
Test CRC 76B6DCDB
Copy CRC 76B6DCDB
Copy OK

No errors occurred

AccurateRip summary

Track 1 accurately ripped (confidence 8) [6DC53624] (AR v2)
Track 2 accurately ripped (confidence 8) [861AFD0C] (AR v2)
Track 3 accurately ripped (confidence 8) [D38E066C] (AR v2)
Track 4 accurately ripped (confidence 8) [3AAF6CBF] (AR v2)
Track 5 accurately ripped (confidence 8) [20CDB4C7] (AR v2)
Track 6 accurately ripped (confidence 8) [1039D576] (AR v2)
Track 7 accurately ripped (confidence 8) [B359B40A] (AR v2)
Track 8 accurately ripped (confidence 8) [FBB5BE3A] (AR v2)

All tracks accurately ripped

End of status report

==== Log checksum 1312FF417D5B53858E85733B79EEABE44C4556F932E41F12319791C9E7C8F8AD ====

REM GENRE Trash Metal
REM DATE 1987
REM DISCID 51087D08
REM COMMENT ExactAudioCopy v1.0b3
PERFORMER “”
TITLE “Terrible Certainty (N 0100)”
FILE “Kreator – Terrible Certainty (N 0100).flac” WAVE
TRACK 01 AUDIO
TITLE “Blind Faith”
PERFORMER “Kreator”
INDEX 01 00:00:00
TRACK 02 AUDIO
TITLE “Storming With Menace”
PERFORMER “Kreator”
INDEX 00 04:06:07
INDEX 01 04:10:50
TRACK 03 AUDIO
TITLE “Terrible Certainty”
PERFORMER “Kreator”
INDEX 00 08:34:47
INDEX 01 08:38:50
TRACK 04 AUDIO
TITLE “As The World Burns”
PERFORMER “Kreator”
INDEX 00 13:05:25
INDEX 01 13:09:00
TRACK 05 AUDIO
TITLE “Toxic Trace”
PERFORMER “Kreator”
INDEX 00 16:57:27
INDEX 01 17:00:50
TRACK 06 AUDIO
TITLE “No Escape”
PERFORMER “Kreator”
INDEX 00 22:32:11
INDEX 01 22:35:50
TRACK 07 AUDIO
TITLE “One Of Us”
PERFORMER “Kreator”
INDEX 00 27:34:37
INDEX 01 27:38:25
TRACK 08 AUDIO
TITLE “Behind The Mirror”
PERFORMER “Kreator”
INDEX 00 31:36:57
INDEX 01 31:40:50


Leave a Reply

Your email address will not be published. Required fields are marked *

This site uses Akismet to reduce spam. Learn how your comment data is processed.