Kreator – Terrible Certainty (Remastered)




Artist: Kreator
Year: 1987/2017
Genre: Hardcore
Notes: Discogs
Add. Notes: Remastered
Cover incl.: Yes
Encoder: FLAC
Bitrate: ~1000 kBit/s (44.1 kHz/16 Bit/s)
Log & Cue incl.: Yes
Size: 689,6 MB
Password: “slam” (without ” “)


All Downloads/Hosters are compatible

Download 1
Turbobit.net
KatFile.com
Rapidgator.net
Usersdrive.com
Download 2
Turbobit.net
KatFile.com
Rapidgator.net
Usersdrive.com

Tracklist:

1-1 - Blind Faith - 4:07
1-2 - Storming With Menace - 4:25
1-3 - Terrible Certainty - 4:27
1-4 - As The World Burns - 3:49
1-5 - Toxic Trace - 5:31
1-6 - No Escape - 4:59
1-7 - One Of Us - 3:59
1-8 - Behind The Mirror - 4:34
Bonus Disc (Out Of The Dark ... Into The Light EP)
2-1 - Impossible To Cure - 2:40
2-2 - Lambs To The Slaughter - 3:33
2-3 - Terrible Certainty (Live) - 5:20
2-4 - Riot Of Violence (Live) - 5:49
2-5 - Awakening Of The Gods (Live) - 7:14
2-6 - Flag Of Hate (Live) - 3:51
2-7 - Love Us Or Hate Us (Live) - 4:39
2-8 - Behind The Mirror (Live) - 4:48

EAC-Log, CUE-Sheed & NFO:

Click to open spoiler
Exact Audio Copy V1.3 from 2. September 2016

EAC extraction logfile from 10. June 2017, 2:26

Kreator / Out Of The Dark… Into The Light (2017)

Used drive : ATAPI iHAS122 W Adapter: 2 ID: 0

Read mode : Secure
Utilize accurate stream : Yes
Defeat audio cache : Yes
Make use of C2 pointers : No

Read offset correction : 48
Overread into Lead-In and Lead-Out : No
Fill up missing offset samples with silence : Yes
Delete leading and trailing silent blocks : No
Null samples used in CRC calculations : Yes
Used interface : Installed external ASPI interface

Used output format : User Defined Encoder
Selected bitrate : 1024 kBit/s
Quality : High
Add ID3 tag : No
Command line compressor : C:\Program Files\FLAC\flac.exe
Additional command line options : -V -8 -T “Date=%year%” -T “Genre=%genre%” -T”COMMENT=Ripped by Ilijan – ilko” -8 -V %source%

TOC of the extracted CD

Track | Start | Length | Start sector | End sector
———————————————————
1 | 0:00.00 | 2:40.62 | 0 | 12061
2 | 2:40.62 | 3:34.25 | 12062 | 28136
3 | 6:15.12 | 5:19.10 | 28137 | 52071
4 | 11:34.22 | 5:48.24 | 52072 | 78195
5 | 17:22.46 | 7:13.39 | 78196 | 110709
6 | 24:36.10 | 3:52.11 | 110710 | 128120
7 | 28:28.21 | 4:38.24 | 128121 | 148994
8 | 33:06.45 | 4:47.06 | 148995 | 170525

Range status and errors

Selected range

Filename D:\ilko\Kreator – Out Of The Dark… Into The Light (2017).wav

Peak level 97.0 %
Extraction speed 3.5 X
Range quality 100.0 %
Test CRC AB229F62
Copy CRC AB229F62
Copy OK

No errors occurred

AccurateRip summary

Track 1 not present in database
Track 2 not present in database
Track 3 not present in database
Track 4 not present in database
Track 5 not present in database
Track 6 not present in database
Track 7 not present in database
Track 8 not present in database

None of the tracks are present in the AccurateRip database

End of status report

—- CUETools DB Plugin V2.1.6

[CTDB TOCID: DJBAg9NuudJUVJCloP0pwHcVWwg-] found
Submit result: DJBAg9NuudJUVJCloP0pwHcVWwg- has been confirmed
Track | CTDB Status
1 | (1/1) Accurately ripped
2 | (1/1) Accurately ripped
3 | (1/1) Accurately ripped
4 | (1/1) Accurately ripped
5 | (1/1) Accurately ripped
6 | (1/1) Accurately ripped
7 | (1/1) Accurately ripped
8 | (1/1) Accurately ripped

==== Log checksum 01017BA066CAB3C2BBEB331A1C35522A2C9435CF094F5C09EEB328B5C668CBC3 ====

Exact Audio Copy V1.3 from 2. September 2016

EAC extraction logfile from 10. June 2017, 1:58

Kreator / Terrible Certainty (2017)

Used drive : ATAPI iHAS122 W Adapter: 2 ID: 0

Read mode : Secure
Utilize accurate stream : Yes
Defeat audio cache : Yes
Make use of C2 pointers : No

Read offset correction : 48
Overread into Lead-In and Lead-Out : No
Fill up missing offset samples with silence : Yes
Delete leading and trailing silent blocks : No
Null samples used in CRC calculations : Yes
Used interface : Installed external ASPI interface

Used output format : User Defined Encoder
Selected bitrate : 1024 kBit/s
Quality : High
Add ID3 tag : No
Command line compressor : C:\Program Files\FLAC\flac.exe
Additional command line options : -V -8 -T “Date=%year%” -T “Genre=%genre%” -T”COMMENT=Ripped by Ilijan – ilko” -8 -V %source%

TOC of the extracted CD

Track | Start | Length | Start sector | End sector
———————————————————
1 | 0:00.00 | 4:07.63 | 0 | 18587
2 | 4:07.63 | 4:26.00 | 18588 | 38537
3 | 8:33.63 | 4:28.60 | 38538 | 58697
4 | 13:02.48 | 3:50.01 | 58698 | 75948
5 | 16:52.49 | 5:32.63 | 75949 | 100911
6 | 22:25.37 | 5:00.52 | 100912 | 123463
7 | 27:26.14 | 4:00.19 | 123464 | 141482
8 | 31:26.33 | 4:33.32 | 141483 | 161989

Range status and errors

Selected range

Filename D:\ilko\Kreator – Terrible Certainty (2017).wav

Peak level 97.0 %
Extraction speed 3.5 X
Range quality 100.0 %
Test CRC 7B7D0542
Copy CRC 7B7D0542
Copy OK

No errors occurred

AccurateRip summary

Track 1 not present in database
Track 2 not present in database
Track 3 not present in database
Track 4 not present in database
Track 5 not present in database
Track 6 not present in database
Track 7 not present in database
Track 8 not present in database

None of the tracks are present in the AccurateRip database

End of status report

—- CUETools DB Plugin V2.1.6

[CTDB TOCID: 4yFy3X5eA8hbviR2RcZeHUQXrDY-] found
Submit result: 4yFy3X5eA8hbviR2RcZeHUQXrDY- has been confirmed
Track | CTDB Status
1 | (1/1) Accurately ripped
2 | (1/1) Accurately ripped
3 | (1/1) Accurately ripped
4 | (1/1) Accurately ripped
5 | (1/1) Accurately ripped
6 | (1/1) Accurately ripped
7 | (1/1) Accurately ripped
8 | (1/1) Accurately ripped

==== Log checksum EE01D1EA3DD0B04E2B66AC51020BD4DFDB5F767984A50C277C2A9F37CE67FC02 ====

REM GENRE “Thrash Metal”
REM DATE 1987/2017
REM DISCID 70086F08
REM COMMENT “ExactAudioCopy v1.3”
PERFORMER “Kreator”
TITLE “Terrible Certainty (NOISE2CD024)”
FILE “Kreator – Terrible Certainty (NOISE2CD024).flac” WAVE
TRACK 01 AUDIO
TITLE “Blind Faith”
PERFORMER “Kreator”
INDEX 01 00:00:00
TRACK 02 AUDIO
TITLE “Storming With Menace”
PERFORMER “Kreator”
INDEX 00 04:06:06
INDEX 01 04:07:63
TRACK 03 AUDIO
TITLE “Terrible Certainty”
PERFORMER “Kreator”
INDEX 00 08:32:11
INDEX 01 08:33:63
TRACK 04 AUDIO
TITLE “As The World Burns”
PERFORMER “Kreator”
INDEX 00 13:00:29
INDEX 01 13:02:48
TRACK 05 AUDIO
TITLE “Toxic Trace”
PERFORMER “Kreator”
INDEX 00 16:50:67
INDEX 01 16:52:49
TRACK 06 AUDIO
TITLE “No Escape”
PERFORMER “Kreator”
INDEX 00 22:23:34
INDEX 01 22:25:37
TRACK 07 AUDIO
TITLE “One Of Us”
PERFORMER “Kreator”
INDEX 00 27:23:54
INDEX 01 27:26:14
TRACK 08 AUDIO
TITLE “Behind The Mirror”
PERFORMER “Kreator”
INDEX 00 31:25:11
INDEX 01 31:26:33

REM GENRE “Thrash Metal”
REM DATE 1988/2017
REM DISCID 7108E108
REM COMMENT “ExactAudioCopy v1.3”
PERFORMER “Kreator”
TITLE “Out Of The Dark… Into The Light (NOISE2CD024)”
FILE “Kreator – Out Of The Dark… Into The Light (NOISE2CD024).flac” WAVE
TRACK 01 AUDIO
TITLE “Impossible To Cure”
PERFORMER “Kreator”
INDEX 01 00:00:00
TRACK 02 AUDIO
TITLE “Lambs To Slaughter”
PERFORMER “Kreator”
INDEX 00 02:39:12
INDEX 01 02:40:62
TRACK 03 AUDIO
TITLE “Terrible Certainty (Live 1988)”
PERFORMER “Kreator”
INDEX 00 06:13:27
INDEX 01 06:15:12
TRACK 04 AUDIO
TITLE “Riot Of Violence (Live 1988)”
PERFORMER “Kreator”
INDEX 01 11:34:22
TRACK 05 AUDIO
TITLE “Awakening Of The Gods (Live 1988)”
PERFORMER “Kreator”
INDEX 01 17:22:46
TRACK 06 AUDIO
TITLE “Flag Of Hate (Live 1990) (Bonus track)”
PERFORMER “Kreator”
INDEX 01 24:36:10
TRACK 07 AUDIO
TITLE “Love Us Or Hate Us (Live 1990) (Bonus track)”
PERFORMER “Kreator”
INDEX 00 28:26:21
INDEX 01 28:28:21
TRACK 08 AUDIO
TITLE “Behind The Mirror (Live 1990) (Bonus track)”
PERFORMER “Kreator”
INDEX 01 33:06:45


Leave a Reply

Your email address will not be published. Required fields are marked *

This site uses Akismet to reduce spam. Learn how your comment data is processed.