Kreator – Terrible Certainty / Out Of The Dark… Into The Light (Remastered Japanese Edition)




[Total: 0    Average: 0/5]

Artist: Kreator
Year: 1991
Genre: Metal
Notes: Discogs
Add. Notes: Remastered Japanese Edition
Cover incl.: Yes
Encoder: FLAC
Bitrate: ~1000 kBit/s (44.1 kHz/16 Bit/s)
Log & Cue incl.: Yes
Size: 527,6 MB
Password: “slam” (without ” “)


All Downloads/Hosters are compatible

Download 1
KatFile.com
Share-online.biz
Rapidgator.net
Usersdrive.com
Download 2
KatFile.com
Share-online.biz
Rapidgator.net
Usersdrive.com

Tracklist:

Terrible Certainty
1 - Blind Faith - 4:05
2 - Storming With Menace - 4:24
3 - Terrible Certainty - 4:26
4 - As The World Burns - 3:48
5 - Toxic Trace - 5:31
6 - No Escape - 4:58
7 - One Of Us - 3:58
8 - Behind The Mirror - 4:32
Out Of The Dark... Into The Ligh
9 - Impossible To Cure - 2:37
10 - Lambs To The Slaughter - 3:32
11 - Gangland - 3:30
12 - Terrible Certainty - 5:24
13 - Riot Of Violence - 5:21
14 - Awakening Of The Gods - 7:34m

EAC-Log, CUE-Sheed & NFO:

Click to open spoiler
Exact Audio Copy V1.3 from 2. September 2016

Отчёт EAC об извлечении, выполненном 14. августа 2017, 5:41

Kreator / (1987) Terrible Certainty – Out Of The Dark…Into The Light

Дисковод: ASUS DRW-24F1MT Adapter: 1 ID: 0

Режим чтения : Достоверность
Использование точного потока : Да
Отключение кэша аудио : Да
Использование указателей C2 : Нет

Коррекция смещения при чтении : 6
Способность читать области Lead-in и Lead-out : Нет
Заполнение пропущенных сэмплов тишиной : Да
Удаление блоков с тишиной в начале и конце : Нет
При вычислениях CRC использовались нулевые сэмплы : Да
Интерфейс : Встроенный Win32-интерфейс для Win NT/2000

Выходной формат : Пользовательский кодировщик
Выбранный битрейт : 128 kBit/s
Качество : Высокий
Добавление ID3-тега : Нет
Утилита сжатия : C:\Program Files (x86)\Exact Audio Copy\Flac\flac.exe
Дополнительные параметры : -V -8 -T “Date=%year%” -T “Genre=%genre%” %source%

TOC извлечённого CD

Трек | Старт | Длительность | Начальный сектор | Конечный сектор
———————————————————————
1 | 0:00.37 | 4:10.40 | 37 | 18826
2 | 4:11.02 | 4:28.00 | 18827 | 38926
3 | 8:39.02 | 4:30.23 | 38927 | 59199
4 | 13:09.25 | 3:51.50 | 59200 | 76574
5 | 17:01.00 | 5:35.00 | 76575 | 101699
6 | 22:36.00 | 5:02.52 | 101700 | 124401
7 | 27:38.52 | 4:02.23 | 124402 | 142574
8 | 31:41.00 | 4:36.25 | 142575 | 163299
9 | 36:17.25 | 2:38.55 | 163300 | 175204
10 | 38:56.05 | 3:33.15 | 175205 | 191194
11 | 42:29.20 | 3:33.72 | 191195 | 207241
12 | 46:03.17 | 5:24.68 | 207242 | 231609
13 | 51:28.10 | 5:21.67 | 231610 | 255751
14 | 56:50.02 | 7:34.38 | 255752 | 289839

Характеристики диапазона извлечения и сообщения об ошибках

Выбранный диапазон

Имя файла C:\Users\Admin\Desktop\Kreator – (1987) Terrible Certainty – Out Of The Dark…Into The Light.wav

Пиковый уровень 100.0 %
Скорость извлечения 2.4 X
Качество диапазона 100.0 %
CRC теста D68EE940
CRC копии D68EE940
Копирование… OK

Ошибок не произошло

AccurateRip: сводка

Трек 1 : извлечено точно (доверие 4) [C3E683F6] (AR v2)
Трек 2 : извлечено точно (доверие 4) [FC78B89C] (AR v2)
Трек 3 : извлечено точно (доверие 4) [517B535B] (AR v2)
Трек 4 : извлечено точно (доверие 4) [99EF11A1] (AR v2)
Трек 5 : извлечено точно (доверие 4) [14FE7AE3] (AR v2)
Трек 6 : извлечено точно (доверие 4) [C3BC1994] (AR v2)
Трек 7 : извлечено точно (доверие 4) [E6F1E39A] (AR v2)
Трек 8 : извлечено точно (доверие 4) [06346526] (AR v2)
Трек 9 : извлечено точно (доверие 4) [B17A42CD] (AR v2)
Трек 10 : извлечено точно (доверие 4) [8BED48D9] (AR v2)
Трек 11 : извлечено точно (доверие 4) [E3418477] (AR v2)
Трек 12 : извлечено точно (доверие 4) [6D79CC05] (AR v2)
Трек 13 : извлечено точно (доверие 4) [1B9AC6D2] (AR v2)
Трек 14 : извлечено точно (доверие 4) [C213CEAA] (AR v2)

Все треки извлечены точно

Конец отчёта

==== Контрольная сумма отчёта 226D893BC63E65AA859E89E4BB1563D8F4AF81EAC97FD3AAD32CF9DB571985CA ====

REM GENRE “Thrash Metal”
REM DATE 1987/1991
REM DISCID B00F180E
REM COMMENT “ExactAudioCopy v1.3”
PERFORMER “Kreator”
TITLE “Terrible Certainty (VICP-116)”
FILE “Kreator – Terrible Certainty (VICP-116).flac” WAVE
TRACK 01 AUDIO
TITLE “Blind Faith”
PERFORMER “Kreator”
INDEX 00 00:00:00
INDEX 01 00:00:37
TRACK 02 AUDIO
TITLE “Storming With Menace”
PERFORMER “Kreator”
INDEX 00 04:06:28
INDEX 01 04:11:02
TRACK 03 AUDIO
TITLE “Terrible Certainty”
PERFORMER “Kreator”
INDEX 00 08:35:11
INDEX 01 08:39:02
TRACK 04 AUDIO
TITLE “As The World Burns”
PERFORMER “Kreator”
INDEX 00 13:05:68
INDEX 01 13:09:25
TRACK 05 AUDIO
TITLE “Toxic Trace”
PERFORMER “Kreator”
INDEX 00 16:57:56
INDEX 01 17:01:00
TRACK 06 AUDIO
TITLE “No Escape”
PERFORMER “Kreator”
INDEX 00 22:32:38
INDEX 01 22:36:00
TRACK 07 AUDIO
TITLE “One Of Us”
PERFORMER “Kreator”
INDEX 00 27:34:66
INDEX 01 27:38:52
TRACK 08 AUDIO
TITLE “Behind The Mirror”
PERFORMER “Kreator”
INDEX 00 31:37:06
INDEX 01 31:41:00
TRACK 09 AUDIO
TITLE “Impossible To Cure (Bonus track)”
PERFORMER “Kreator”
INDEX 00 36:13:41
INDEX 01 36:17:25
TRACK 10 AUDIO
TITLE “Lambs To The Slaughter (Bonus track)”
PERFORMER “Kreator”
INDEX 00 38:55:18
INDEX 01 38:56:05
TRACK 11 AUDIO
TITLE “Gangland (Bonus track)”
PERFORMER “Kreator”
INDEX 00 42:28:36
INDEX 01 42:29:20
TRACK 12 AUDIO
TITLE “Terrible Certainty (Live) (Bonus track)”
PERFORMER “Kreator”
INDEX 00 45:59:56
INDEX 01 46:03:17
TRACK 13 AUDIO
TITLE “Riot Of Violence (Live) (Bonus track)”
PERFORMER “Kreator”
INDEX 01 51:28:10
TRACK 14 AUDIO
TITLE “Awakening Of The Gods (Live) (Bonus track)”
PERFORMER “Kreator”
INDEX 01 56:50:02


Spread the Download

Leave a Reply

Your email address will not be published. Required fields are marked *

Enter the text from the image below
 

This site uses Akismet to reduce spam. Learn how your comment data is processed.