Kreator – Scenarios Of Violence (Remastered Japanese Edition)




[Total: 0    Average: 0/5]

Artist: Kreator
Year: 1996
Genre: Metal
Notes: Discogs
Add. Notes: Remastered Japanese Edition
Cover incl.: Yes
Encoder: FLAC
Bitrate: ~1000 kBit/s (44.1 kHz/16 Bit/s)
Log & Cue incl.: Yes
Size: 653,79 MB
Password: “slam” (without ” “)


All Downloads/Hosters are compatible

Download 1
Share-online.biz
KatFile.com
Rapidgator.net
Download 2
Share-online.biz
KatFile.com
Rapidgator.net

Tracklist:

1 - Suicide In Swamps - 5:09
2 - Renewal - 4:24
3 - Extreme Aggressions - 4:42
4 - Brainseed - 3:06
5 - Terrorzone - 5:52
6 - Ripping Corpse - 4:18
7 - Tormentor - 2:33
8 - Some Pain Will Last - 5:37
9 - Toxic Trace - 5:08
10 - People Of The Lie - 3:14
11 - Depressive Unrest - 3:56
12 - Coma Of Souls - 4:18
13 - Europe After The Rain - 3:12
14 - Limits Of Liberty - 1:38
15 - Terrible Certainty - 4:16
16 - Karmic Wheel - 6:06

EAC-Log, CUE-Sheed & NFO:

Click to open spoiler
Exact Audio Copy V1.3 from 2. September 2016

Отчёт EAC об извлечении, выполненном 14. августа 2017, 21:09

Kreator / Scenarios Of Violence

Дисковод: ASUS DRW-24F1MT Adapter: 1 ID: 0

Режим чтения : Достоверность
Использование точного потока : Да
Отключение кэша аудио : Да
Использование указателей C2 : Нет

Коррекция смещения при чтении : 6
Способность читать области Lead-in и Lead-out : Нет
Заполнение пропущенных сэмплов тишиной : Да
Удаление блоков с тишиной в начале и конце : Нет
При вычислениях CRC использовались нулевые сэмплы : Да
Интерфейс : Встроенный Win32-интерфейс для Win NT/2000

Выходной формат : Пользовательский кодировщик
Выбранный битрейт : 128 kBit/s
Качество : Высокий
Добавление ID3-тега : Нет
Утилита сжатия : C:\Program Files (x86)\Exact Audio Copy\Flac\flac.exe
Дополнительные параметры : -V -8 -T “Date=%year%” -T “Genre=%genre%” %source%

TOC извлечённого CD

Трек | Старт | Длительность | Начальный сектор | Конечный сектор
———————————————————————
1 | 0:00.37 | 5:09.43 | 37 | 23254
2 | 5:10.05 | 4:24.50 | 23255 | 43104
3 | 9:34.55 | 4:41.50 | 43105 | 64229
4 | 14:16.30 | 3:06.52 | 64230 | 78231
5 | 17:23.07 | 5:52.18 | 78232 | 104649
6 | 23:15.25 | 4:18.45 | 104650 | 124044
7 | 27:33.70 | 2:32.32 | 124045 | 135476
8 | 30:06.27 | 5:38.00 | 135477 | 160826
9 | 35:44.27 | 5:08.03 | 160827 | 183929
10 | 40:52.30 | 3:13.07 | 183930 | 198411
11 | 44:05.37 | 3:56.15 | 198412 | 216126
12 | 48:01.52 | 4:18.63 | 216127 | 235539
13 | 52:20.40 | 3:13.25 | 235540 | 250039
14 | 55:33.65 | 1:38.70 | 250040 | 257459
15 | 57:12.60 | 4:17.15 | 257460 | 276749
16 | 61:30.00 | 6:06.10 | 276750 | 304209

Характеристики диапазона извлечения и сообщения об ошибках

Выбранный диапазон

Имя файла C:\Users\Admin\Desktop\Kreator – Scenarios Of Violence (Japan)\Kreator – Scenarios Of Violence.wav

Пиковый уровень 98.0 %
Скорость извлечения 2.4 X
Качество диапазона 100.0 %
CRC теста BF05A270
CRC копии BF05A270
Копирование… OK

Ошибок не произошло

AccurateRip: сводка

Трек 1 : извлечено точно (доверие 1) [25B8EDBA] (AR v2)
Трек 2 : извлечено точно (доверие 1) [D00DFE41] (AR v2)
Трек 3 : извлечено точно (доверие 1) [A16A99B1] (AR v2)
Трек 4 : извлечено точно (доверие 1) [8EAD46A9] (AR v2)
Трек 5 : извлечено точно (доверие 1) [64094EC0] (AR v2)
Трек 6 : извлечено точно (доверие 1) [5AFFB7D6] (AR v2)
Трек 7 : извлечено точно (доверие 1) [3D1B7AF1] (AR v2)
Трек 8 : извлечено точно (доверие 1) [01F5E0B1] (AR v2)
Трек 9 : извлечено точно (доверие 1) [C501191E] (AR v2)
Трек 10 : извлечено точно (доверие 1) [FD7B6FE8] (AR v2)
Трек 11 : извлечено точно (доверие 1) [8E4A4B6E] (AR v2)
Трек 12 : извлечено точно (доверие 1) [BEC6CA5F] (AR v2)
Трек 13 : извлечено точно (доверие 1) [5D3718BC] (AR v2)
Трек 14 : извлечено точно (доверие 1) [38566AAD] (AR v2)
Трек 15 : извлечено точно (доверие 1) [860A6AE4] (AR v2)
Трек 16 : извлечено точно (доверие 1) [2A4F300F] (AR v2)

Все треки извлечены точно

Конец отчёта

==== Контрольная сумма отчёта 9A39A8AA93F3F38237A437723E57A07423CC93B4E549F4146C3BC84B067CB911 ====

REM GENRE Thrash Metal
REM DATE 1996
REM DISCID ED0FD810
REM COMMENT “ExactAudioCopy v1.3”
PERFORMER “Kreator”
TITLE “Scenarios Of Violence (VICP-5690)”
FILE “Kreator – Scenarios Of Violence (VICP-5690).flac” WAVE
TRACK 01 AUDIO
TITLE “Suicide In Swamps (Previously unreleased)”
PERFORMER “Kreator”
INDEX 00 00:00:00
INDEX 01 00:00:37
TRACK 02 AUDIO
TITLE “Renewal”
PERFORMER “Kreator”
INDEX 01 05:10:05
TRACK 03 AUDIO
TITLE “Extreme Aggression”
PERFORMER “Kreator”
INDEX 00 09:34:41
INDEX 01 09:34:55
TRACK 04 AUDIO
TITLE “Brainseed”
PERFORMER “Kreator”
INDEX 01 14:16:30
TRACK 05 AUDIO
TITLE “Terrorzone”
PERFORMER “Kreator”
INDEX 00 17:23:03
INDEX 01 17:23:07
TRACK 06 AUDIO
TITLE “Ripping Corpse (Live)”
PERFORMER “Kreator”
INDEX 00 23:15:21
INDEX 01 23:15:25
TRACK 07 AUDIO
TITLE “Tormentor (Live)”
PERFORMER “Kreator”
INDEX 01 27:33:70
TRACK 08 AUDIO
TITLE “Some Pain Will Last”
PERFORMER “Kreator”
INDEX 01 30:06:27
TRACK 09 AUDIO
TITLE “Toxic Trace”
PERFORMER “Kreator”
INDEX 00 35:44:08
INDEX 01 35:44:27
TRACK 10 AUDIO
TITLE “People Of The Lie”
PERFORMER “Kreator”
INDEX 00 40:52:26
INDEX 01 40:52:30
TRACK 11 AUDIO
TITLE “Depression Unrest”
PERFORMER “Kreator”
INDEX 01 44:05:37
TRACK 12 AUDIO
TITLE “Coma Of Souls”
PERFORMER “Kreator”
INDEX 00 48:01:22
INDEX 01 48:01:52
TRACK 13 AUDIO
TITLE “Europe After The Rain”
PERFORMER “Kreator”
INDEX 00 52:20:33
INDEX 01 52:20:40
TRACK 14 AUDIO
TITLE “Limits Of Liberty (Previously unreleased)”
PERFORMER “Kreator”
INDEX 00 55:33:13
INDEX 01 55:33:65
TRACK 15 AUDIO
TITLE “Terrible Certainty”
PERFORMER “Kreator”
INDEX 00 57:12:36
INDEX 01 57:12:60
TRACK 16 AUDIO
TITLE “Karmic Wheel”
PERFORMER “Kreator”
INDEX 01 61:30:00


Spread the Download

Leave a Reply

Your email address will not be published. Required fields are marked *

Enter the text from the image below
 

This site uses Akismet to reduce spam. Learn how your comment data is processed.