Kreator – Renewal




Artist: Kreator
Year: 1992
Genre: Rock
Notes: Discogs
Add. Notes:
Cover incl.: Yes
Encoder: FLAC
Bitrate: ~900 kBit/s (44.1 kHz/16 Bit/s)
Log & Cue incl.: Yes
Size: 295,86 MB
Password: “slam” (without ” “)


All Downloads/Hosters are compatible

Download 1
Turbobit.net
Rapidgator.net
UploadEver.com
KatFile.com
UsersDrive.com
Download 2
Turbobit.net
Rapidgator.net
UploadEver.com
KatFile.com
UsersDrive.com
Download 3
Turbobit.net
Rapidgator.net
UploadEver.com
KatFile.com
UsersDrive.com

Tracklist:

1 - Winter Martyrium - 5:43
2 - Renewal - 4:36
3 - Reflection - 6:15
4 - Brainseed - 3:17
5 - Karmic Wheel - 6:06
6 - Realitätskontrolle - 1:22
7 - Zero To None - 3:12
8 - Europe After The Rain - 3:19
9 - Depression Unrest - 5:05

EAC-Log, CUE-Sheed & NFO:

Click to open spoiler
Exact Audio Copy V1.0 beta 3 from 29. August 2011

EAC extraction logfile from 15. September 2013, 20:11

Kreator / Renewal [N 0193-2]

Used drive : Optiarc DVD RW AD-7203A Adapter: 3 ID: 1

Read mode : Secure
Utilize accurate stream : Yes
Defeat audio cache : Yes
Make use of C2 pointers : No

Read offset correction : 48
Overread into Lead-In and Lead-Out : No
Fill up missing offset samples with silence : Yes
Delete leading and trailing silent blocks : No
Null samples used in CRC calculations : Yes
Used interface : Native Win32 interface for Win NT & 2000

Used output format : User Defined Encoder
Selected bitrate : 768 kBit/s
Quality : High
Add ID3 tag : No
Command line compressor : C:\Program Files (x86)\Exact Audio Copy\FLAC\FLAC.EXE
Additional command line options : -6 -V -T “ARTIST=%artist%” -T “TITLE=%title%” -T “ALBUM=%albumtitle%” -T “DATE=%year%” -T “TRACKNUMBER=%tracknr%” -T “GENRE=%genre%” -T “COMMENT=%comment%” -T “BAND=%albuminterpret%” -T “ALBUMARTIST=%albuminterpret%” -T “COMPOSER=%composer%” %haslyrics%–tag-from-file=LYRICS=”%lyricsfile%”%haslyrics% -T “DISCNUMBER=%cdnumber%” -T “TOTALDISCS=%totalcds%” -T “TOTALTRACKS=%numtracks%” %hascover%–picture=”%coverfile%”%hascover% %source% -o %dest%

TOC of the extracted CD

Track | Start | Length | Start sector | End sector
———————————————————
1 | 0:00.00 | 5:43.50 | 0 | 25774
2 | 5:43.50 | 4:35.40 | 25775 | 46439
3 | 10:19.15 | 6:15.45 | 46440 | 74609
4 | 16:34.60 | 3:17.00 | 74610 | 89384
5 | 19:51.60 | 6:05.62 | 89385 | 116821
6 | 25:57.47 | 1:22.18 | 116822 | 122989
7 | 27:19.65 | 3:11.40 | 122990 | 137354
8 | 30:31.30 | 3:18.67 | 137355 | 152271
9 | 33:50.22 | 5:05.08 | 152272 | 175154

Range status and errors

Selected range

Filename C:\records\KREATOR 3 album collection\1992 Renewal\Kreator – Renewal [N 0193-2].wav

Peak level 100.0 %
Extraction speed 3.6 X
Range quality 100.0 %
Test CRC E9DFC3C8
Copy CRC E9DFC3C8
Copy OK

No errors occurred

AccurateRip summary

Track 1 accurately ripped (confidence 6) [75155FE4] (AR v2)
Track 2 accurately ripped (confidence 6) [974166DB] (AR v2)
Track 3 accurately ripped (confidence 6) [E72449C1] (AR v2)
Track 4 accurately ripped (confidence 6) [51B5115C] (AR v2)
Track 5 accurately ripped (confidence 6) [0615DDF4] (AR v2)
Track 6 accurately ripped (confidence 6) [2D2B629E] (AR v2)
Track 7 accurately ripped (confidence 6) [B434ABC2] (AR v2)
Track 8 accurately ripped (confidence 6) [C6B582E4] (AR v2)
Track 9 accurately ripped (confidence 6) [49A9F276] (AR v2)

All tracks accurately ripped

End of status report

==== Log checksum 55D4D2A413DDBDA2B9A28670EE1E9F964E13CDC2032D74492B0188AE3F2AD1B0 ====

REM GENRE Thrash Metal
REM DATE 1992
REM DISCID 73091F09
REM COMMENT ExactAudioCopy v1.0b3
PERFORMER “”
TITLE “Renewal (N 0193-2)”
FILE “Kreator – Renewal (N 0193-2).flac” WAVE
TRACK 01 AUDIO
TITLE “Winter Martyrium”
PERFORMER “Kreator”
INDEX 01 00:00:00
TRACK 02 AUDIO
TITLE “Renewal”
PERFORMER “Kreator”
INDEX 01 05:43:50
TRACK 03 AUDIO
TITLE “Reflection”
PERFORMER “Kreator”
INDEX 01 10:19:15
TRACK 04 AUDIO
TITLE “Brainseed”
PERFORMER “Kreator”
INDEX 01 16:34:60
TRACK 05 AUDIO
TITLE “Karmic Wheel”
PERFORMER “Kreator”
INDEX 01 19:51:60
TRACK 06 AUDIO
TITLE “Realitatskontrolle”
PERFORMER “Kreator”
INDEX 01 25:57:47
TRACK 07 AUDIO
TITLE “Zero To None”
PERFORMER “Kreator”
INDEX 01 27:19:65
TRACK 08 AUDIO
TITLE “Europe After The Rain”
PERFORMER “Kreator”
INDEX 01 30:31:30
TRACK 09 AUDIO
TITLE “Depression Unrest”
PERFORMER “Kreator”
INDEX 01 33:50:22


Leave a Reply

Your email address will not be published. Required fields are marked *

This site uses Akismet to reduce spam. Learn how your comment data is processed.