Kreator – Renewal (Remastered)




Artist: Kreator
Year: 1992/2018
Genre: Metal
Notes: Discogs
Add. Notes: Remastered
Cover incl.: Yes
Encoder: FLAC
Bitrate: ~1000 kBit/s (44.1 kHz/16 Bit/s)
Log & Cue incl.: Yes
Size: 483,59 MB
Password: “slam” (without ” “)


All Downloads/Hosters are compatible

Download 1
Turbobit.net
Rapidgator.net
KatFile.com
UploadRar.com
Download 2
Turbobit.net
Rapidgator.net
KatFile.com
UploadRar.com
Download 3
Turbobit.net
Rapidgator.net
KatFile.com
UploadRar.com

Tracklist:

1. Winter Martyrium 	
2. Renewal 	
3. Reflection 	
4. Brainseed 	
5. Karmic Wheel 	
6. Realitätskontrolle 	
7. Zero To None 	
8. Europe After The Rain 	
9. Depression Unrest 	
Bonus Tracks
10. Winter Martyrium (Rare Version) 	
11. Trauma 	
12. Europe After The Rain (Remix)

EAC-Log, CUE-Sheed & NFO:

Click to open spoiler
Exact Audio Copy V1.3 from 2. September 2016

EAC extraction logfile from 2. April 2018, 13:54

Kreator / Renewal (NOISECD047)

Used drive : ASUS DRW-24B1ST Adapter: 1 ID: 1

Read mode : Secure
Utilize accurate stream : Yes
Defeat audio cache : Yes
Make use of C2 pointers : No

Read offset correction : 6
Overread into Lead-In and Lead-Out : No
Fill up missing offset samples with silence : Yes
Delete leading and trailing silent blocks : No
Null samples used in CRC calculations : Yes
Used interface : Native Win32 interface for Win NT & 2000

Used output format : User Defined Encoder
Selected bitrate : 1024 kBit/s
Quality : High
Add ID3 tag : No
Command line compressor : C:\Program Files (x86)\Exact Audio Copy\Flac\flac.exe
Additional command line options : -V -8 -T “Genre=%genre%” -T “Artist=%artist%” -T “Title=%title%” -T “Album=%albumtitle%” -T “Date=%year%” -T “Tracknumber=%tracknr%” -T “Comment=%comment%” %source%

TOC of the extracted CD

Track | Start | Length | Start sector | End sector
———————————————————
1 | 0:00.00 | 5:43.61 | 0 | 25785
2 | 5:43.61 | 4:35.42 | 25786 | 46452
3 | 10:19.28 | 6:15.45 | 46453 | 74622
4 | 16:34.73 | 3:17.05 | 74623 | 89402
5 | 19:52.03 | 6:05.57 | 89403 | 116834
6 | 25:57.60 | 1:22.22 | 116835 | 123006
7 | 27:20.07 | 3:11.38 | 123007 | 137369
8 | 30:31.45 | 3:12.45 | 137370 | 151814
9 | 33:44.15 | 5:12.69 | 151815 | 175283
10 | 38:57.09 | 6:13.56 | 175284 | 203314
11 | 45:10.65 | 5:12.10 | 203315 | 226724
12 | 50:23.00 | 3:14.17 | 226725 | 241291

Range status and errors

Selected range

Filename E:\Torrent\Ginger Devil\Kreator 2018\1992 – Renewal (NOISECD047)\Kreator – Renewal (NOISECD047).wav

Peak level 97.0 %
Extraction speed 5.5 X
Range quality 100.0 %
Test CRC 0C8C411A
Copy CRC 0C8C411A
Copy OK

No errors occurred

AccurateRip summary

Track 1 not present in database
Track 2 not present in database
Track 3 not present in database
Track 4 not present in database
Track 5 not present in database
Track 6 not present in database
Track 7 not present in database
Track 8 not present in database
Track 9 not present in database
Track 10 not present in database
Track 11 not present in database
Track 12 not present in database

None of the tracks are present in the AccurateRip database

End of status report

—- CUETools DB Plugin V2.1.6

[CTDB TOCID: q8PovVRT2IxYmR_r.OwiPK18A2k-] found
Submit result: q8PovVRT2IxYmR_r.OwiPK18A2k- has been confirmed
Track | CTDB Status
1 | (11/11) Accurately ripped
2 | (11/11) Accurately ripped
3 | (11/11) Accurately ripped
4 | (11/11) Accurately ripped
5 | (11/11) Accurately ripped
6 | (11/11) Accurately ripped
7 | (11/11) Accurately ripped
8 | (11/11) Accurately ripped
9 | (11/11) Accurately ripped
10 | (11/11) Accurately ripped
11 | (11/11) Accurately ripped
12 | (11/11) Accurately ripped

==== Log checksum 7EDBB0B2165A6F8EB19CA744B11D2F7152767681D34CAE388A395C3BE6D99835 ====

REM GENRE Metal
REM DATE 1992/2018
REM DISCID 9F0C910C
REM COMMENT “ExactAudioCopy v1.3”
CATALOG 4050538336580
PERFORMER “Kreator”
TITLE “Renewal (NOISECD047)”
REM COMPOSER “Kreator”
FILE “Kreator – Renewal (NOISECD047).flac” WAVE
TRACK 01 AUDIO
TITLE “Winter Martyrium”
PERFORMER “Kreator”
REM COMPOSER “Kreator”
ISRC Tb6AW1702793
INDEX 01 00:00:00
TRACK 02 AUDIO
TITLE “Renewal”
PERFORMER “Kreator”
REM COMPOSER “Kreator”
ISRC Tb6AW1702794
INDEX 01 05:43:61
TRACK 03 AUDIO
TITLE “Reflection”
PERFORMER “Kreator”
REM COMPOSER “Kreator”
ISRC Tb6AW1702795
INDEX 01 10:19:28
TRACK 04 AUDIO
TITLE “Brainseed”
PERFORMER “Kreator”
REM COMPOSER “Kreator”
ISRC Tb6AW1702796
INDEX 01 16:34:73
TRACK 05 AUDIO
TITLE “Karmic Wheel”
PERFORMER “Kreator”
REM COMPOSER “Kreator”
ISRC Tb6AW1702797
INDEX 01 19:52:03
TRACK 06 AUDIO
TITLE “Realitatskontrolle”
PERFORMER “Kreator”
REM COMPOSER “Kreator”
ISRC Tb6AW1702798
INDEX 01 25:57:60
TRACK 07 AUDIO
TITLE “Zero To None”
PERFORMER “Kreator”
REM COMPOSER “Kreator”
ISRC Tb6AW1702798
INDEX 01 27:20:07
TRACK 08 AUDIO
TITLE “Europe After The Rain”
PERFORMER “Kreator”
REM COMPOSER “Kreator”
ISRC Tb6AW1702800
INDEX 01 30:31:45
TRACK 09 AUDIO
TITLE “Depression Unrest”
PERFORMER “Kreator”
REM COMPOSER “Kreator”
ISRC Tb6AW1702801
INDEX 01 33:44:15
TRACK 10 AUDIO
TITLE “Winter Martyrium (Rare version) (Bonus track)”
PERFORMER “Kreator”
REM COMPOSER “Kreator”
ISRC Tb6AW1702802
INDEX 00 38:55:10
INDEX 01 38:57:09
TRACK 11 AUDIO
TITLE “Trauma (Bonus track)”
PERFORMER “Kreator”
REM COMPOSER “Kreator”
ISRC Tb6AW1702803
INDEX 00 45:07:48
INDEX 01 45:10:65
TRACK 12 AUDIO
TITLE “Europe After The Rain (Remix) (Bonus track)”
PERFORMER “Kreator”
REM COMPOSER “Kreator”
ISRC Tb6AW1702804
INDEX 00 50:21:34
INDEX 01 50:23:00


Leave a Reply

Your email address will not be published. Required fields are marked *

This site uses Akismet to reduce spam. Learn how your comment data is processed.