Kreator – Renewal (Japanese Edition)




Artist: Kreator
Year: 1992
Genre: Metal
Notes: Discogs
Add. Notes: Japanese Edition
Cover incl.: Yes
Encoder: FLAC
Bitrate: ~900 kBit/s (44.1 kHz/16 Bit/s)
Log & Cue incl.: Yes
Size: 338,57 MB
Password: “slam” (without ” “)


All Downloads/Hosters are compatible

Download 1
Turbobit.net
Rapidgator.net
KatFile.com
UploadRar.com
Download 2
Turbobit.net
Rapidgator.net
KatFile.com
UploadRar.com

Tracklist:

1 - Winter Martyrium - 5:43
2 - Renewal - 4:36
3 - Reflection - 6:15
4 - Brainseed - 3:17
5 - Karmic Wheel - 6:06
6 - Realitätskontrolle - 1:22
7 - Zero To None - 3:12
8 - Europe After The Rain - 3:19
9 - Depression Unrest - 5:05

EAC-Log, CUE-Sheed & NFO:

Click to open spoiler
Exact Audio Copy V1.3 from 2. September 2016

Отчёт EAC об извлечении, выполненном 14. августа 2017, 6:20

Kreator / Renewal

Дисковод: ASUS DRW-24F1MT Adapter: 1 ID: 0

Режим чтения : Достоверность
Использование точного потока : Да
Отключение кэша аудио : Да
Использование указателей C2 : Нет

Коррекция смещения при чтении : 6
Способность читать области Lead-in и Lead-out : Нет
Заполнение пропущенных сэмплов тишиной : Да
Удаление блоков с тишиной в начале и конце : Нет
При вычислениях CRC использовались нулевые сэмплы : Да
Интерфейс : Встроенный Win32-интерфейс для Win NT/2000

Выходной формат : Пользовательский кодировщик
Выбранный битрейт : 128 kBit/s
Качество : Высокий
Добавление ID3-тега : Нет
Утилита сжатия : C:\Program Files (x86)\Exact Audio Copy\Flac\flac.exe
Дополнительные параметры : -V -8 -T “Date=%year%” -T “Genre=%genre%” %source%

TOC извлечённого CD

Трек | Старт | Длительность | Начальный сектор | Конечный сектор
———————————————————————
1 | 0:00.37 | 5:43.52 | 37 | 25813
2 | 5:44.14 | 4:35.40 | 25814 | 46478
3 | 10:19.54 | 6:15.45 | 46479 | 74648
4 | 16:35.24 | 3:17.00 | 74649 | 89423
5 | 19:52.24 | 6:05.63 | 89424 | 116861
6 | 25:58.12 | 1:22.17 | 116862 | 123028
7 | 27:20.29 | 3:11.40 | 123029 | 137393
8 | 30:31.69 | 3:18.68 | 137394 | 152311
9 | 33:50.62 | 5:07.10 | 152312 | 175346

Характеристики диапазона извлечения и сообщения об ошибках

Выбранный диапазон

Имя файла C:\Users\Admin\Desktop\Kreator – Renewal (Japan)\Kreator – Renewal.wav

Пиковый уровень 100.0 %
Скорость извлечения 2.3 X
Качество диапазона 99.9 %
CRC теста 29240C2F
CRC копии 29240C2F
Копирование… OK

Ошибок не произошло

AccurateRip: сводка

Трек 1 : извлечено точно (доверие 2) [DEE355F4] (AR v1)
Трек 2 : извлечено точно (доверие 2) [4C008D4D] (AR v1)
Трек 3 : извлечено точно (доверие 2) [88809CDF] (AR v1)
Трек 4 : извлечено точно (доверие 2) [E94B1EAA] (AR v1)
Трек 5 : извлечено точно (доверие 2) [ECBAFC7A] (AR v1)
Трек 6 : извлечено точно (доверие 2) [7A032C28] (AR v1)
Трек 7 : извлечено точно (доверие 2) [455CEEF2] (AR v1)
Трек 8 : извлечено точно (доверие 2) [1A1E7F61] (AR v1)
Трек 9 : извлечено точно (доверие 2) [69CEAFCF] (AR v1)

Все треки извлечены точно

Конец отчёта

==== Контрольная сумма отчёта 78D82EA83EBE03D8C8941A3C8C60797931F5442FCC800790ACC8A033ED5F1242 ====

REM GENRE Thrash Metal
REM DATE 1992
REM DISCID 6F092109
REM COMMENT ExactAudioCopy v1.3
PERFORMER “Kreator”
TITLE “Renewal (VICP-5221)”
FILE “Kreator – Renewal (VICP-5221).flac” WAVE
TRACK 01 AUDIO
TITLE “Winter Martyrium”
INDEX 00 00:00:00
INDEX 01 00:00:37
TRACK 02 AUDIO
TITLE “Renewal”
INDEX 01 05:44:14
TRACK 03 AUDIO
TITLE “Reflection”
INDEX 01 10:19:54
TRACK 04 AUDIO
TITLE “Brainseed”
INDEX 01 16:35:24
TRACK 05 AUDIO
TITLE “Karmic Wheel”
INDEX 01 19:52:24
TRACK 06 AUDIO
TITLE “Realitatskontrolle”
INDEX 01 25:58:12
TRACK 07 AUDIO
TITLE “Zero To None”
INDEX 01 27:20:29
TRACK 08 AUDIO
TITLE “Europe After The Rain”
INDEX 01 30:31:69
TRACK 09 AUDIO
TITLE “Depression Unrest”
INDEX 01 33:50:62


Leave a Reply

Your email address will not be published. Required fields are marked *

This site uses Akismet to reduce spam. Learn how your comment data is processed.