Kreator – Pleasure To Kill (Remastered)




Artist: Kreator
Year: 1986/2017
Genre: Metal
Notes: Discogs
Add. Notes: Remastered
Cover incl.: Yes
Encoder: FLAC
Bitrate: ~1000 kBit/s (44.1 kHz/16 Bit/s)
Log & Cue incl.: Yes
Size: 533,63 MB
Password: “slam” (without ” “)


All Downloads/Hosters are compatible

Download 1
Turbobit.net
Rapidgator.net
UploadEver.com
KatFile.com
UsersDrive.com
Download 2
Turbobit.net
Rapidgator.net
UploadEver.com
KatFile.com
UsersDrive.com
Download 3
Turbobit.net
Rapidgator.net
UploadEver.com
KatFile.com
UsersDrive.com

Tracklist:

1 - Choir Of The Damned - 1:41
2 - Ripping Corpse - 3:35
3 - Death Is Your Saviour - 3:57
4 - Pleasure To Kill - 4:09
5 - Riot Of Violence - 4:55
6 - The Pestilence - 6:57
7 - Carrion - 4:47
8 - Command Of The Blade - 3:56
9 - Under The Guillotine - 4:37
Flag Of Hate EP
10 - Flag Of Hate - 3:56
11 - Take Their Lives - 6:26
12 - Awakening Of The Gods - 7:32 

EAC-Log, CUE-Sheed & NFO:

Click to open spoiler
Exact Audio Copy V1.3 from 2. September 2016

EAC extraction logfile from 10. June 2017, 1:34

Kreator / Pleasure To Kill (2017)

Used drive : ATAPI iHAS122 W Adapter: 2 ID: 0

Read mode : Secure
Utilize accurate stream : Yes
Defeat audio cache : Yes
Make use of C2 pointers : No

Read offset correction : 48
Overread into Lead-In and Lead-Out : No
Fill up missing offset samples with silence : Yes
Delete leading and trailing silent blocks : No
Null samples used in CRC calculations : Yes
Used interface : Installed external ASPI interface

Used output format : User Defined Encoder
Selected bitrate : 1024 kBit/s
Quality : High
Add ID3 tag : No
Command line compressor : C:\Program Files\FLAC\flac.exe
Additional command line options : -V -8 -T “Date=%year%” -T “Genre=%genre%” -T”COMMENT=Ripped by Ilijan – ilko” -8 -V %source%

TOC of the extracted CD

Track | Start | Length | Start sector | End sector
———————————————————
1 | 0:00.00 | 1:40.51 | 0 | 7550
2 | 1:40.51 | 3:35.53 | 7551 | 23728
3 | 5:16.29 | 3:58.15 | 23729 | 41593
4 | 9:14.44 | 4:08.57 | 41594 | 60250
5 | 13:23.26 | 4:56.00 | 60251 | 82450
6 | 18:19.26 | 6:57.31 | 82451 | 113756
7 | 25:16.57 | 4:48.04 | 113757 | 135360
8 | 30:04.61 | 3:56.27 | 135361 | 153087
9 | 34:01.13 | 4:38.22 | 153088 | 173959
10 | 38:39.35 | 3:56.23 | 173960 | 191682
11 | 42:35.58 | 6:26.43 | 191683 | 220675
12 | 49:02.26 | 7:31.04 | 220676 | 254504

Range status and errors

Selected range

Filename D:\ilko\Kreator – Pleasure To Kill (2017).wav

Peak level 97.0 %
Extraction speed 3.1 X
Range quality 99.9 %
Test CRC 90FAEAF4
Copy CRC 90FAEAF4
Copy OK

No errors occurred

AccurateRip summary

Track 1 not present in database
Track 2 not present in database
Track 3 not present in database
Track 4 not present in database
Track 5 not present in database
Track 6 not present in database
Track 7 not present in database
Track 8 not present in database
Track 9 not present in database
Track 10 not present in database
Track 11 not present in database
Track 12 not present in database

None of the tracks are present in the AccurateRip database

End of status report

—- CUETools DB Plugin V2.1.6

[CTDB TOCID: 4nf4pJWtqT5BGEK4T39dcgczwAg-] found
Submit result: 4nf4pJWtqT5BGEK4T39dcgczwAg- has been confirmed
Track | CTDB Status
1 | (2/2) Accurately ripped
2 | (2/2) Accurately ripped
3 | (2/2) Accurately ripped
4 | (2/2) Accurately ripped
5 | (2/2) Accurately ripped
6 | (2/2) Accurately ripped
7 | (2/2) Accurately ripped
8 | (2/2) Accurately ripped
9 | (2/2) Accurately ripped
10 | (2/2) Accurately ripped
11 | (2/2) Accurately ripped
12 | (2/2) Accurately ripped

==== Log checksum B52D55182161282506B6FFC6D71761505F3757CD87B2A4037B116C335CFE33AF ====

REM GENRE “Thrash Metal”
REM DATE 1986/2017
REM DISCID 860D410C
REM COMMENT “ExactAudioCopy v1.3”
PERFORMER “Kreator”
TITLE “Pleasure To Kill (NOISECD022)”
FILE “Kreator – Pleasure To Kill (NOISECD022).flac” WAVE
TRACK 01 AUDIO
TITLE “Choir Of The Damned”
PERFORMER “Kreator”
INDEX 01 00:00:00
TRACK 02 AUDIO
TITLE “Ripping Corpse”
PERFORMER “Kreator”
INDEX 01 01:40:51
TRACK 03 AUDIO
TITLE “Death Is Your Saviour”
PERFORMER “Kreator”
INDEX 00 05:15:15
INDEX 01 05:16:29
TRACK 04 AUDIO
TITLE “Pleasure To Kill”
PERFORMER “Kreator”
INDEX 00 09:12:49
INDEX 01 09:14:44
TRACK 05 AUDIO
TITLE “Riot Of Violence”
PERFORMER “Kreator”
INDEX 00 13:23:02
INDEX 01 13:23:26
TRACK 06 AUDIO
TITLE “The Pestilence”
PERFORMER “Kreator”
INDEX 00 18:17:63
INDEX 01 18:19:26
TRACK 07 AUDIO
TITLE “Carrion”
PERFORMER “Kreator”
INDEX 00 25:15:47
INDEX 01 25:16:57
TRACK 08 AUDIO
TITLE “Command Of The Blade”
PERFORMER “Kreator”
INDEX 00 30:03:37
INDEX 01 30:04:61
TRACK 09 AUDIO
TITLE “Under The Guillotine”
PERFORMER “Kreator”
INDEX 00 34:00:32
INDEX 01 34:01:13
TRACK 10 AUDIO
TITLE “Flag Of Hate (Bonus track)”
PERFORMER “Kreator”
INDEX 00 38:38:08
INDEX 01 38:39:35
TRACK 11 AUDIO
TITLE “Take Their Lives (Bonus track)”
PERFORMER “Kreator”
INDEX 00 42:35:07
INDEX 01 42:35:58
TRACK 12 AUDIO
TITLE “Awakening Of The Gods (Bonus track)”
PERFORMER “Kreator”
INDEX 00 49:01:41
INDEX 01 49:02:26


Leave a Reply

Your email address will not be published. Required fields are marked *

This site uses Akismet to reduce spam. Learn how your comment data is processed.