Kreator – Pleasure To Kill / Flag Of Hate




Artist: Kreator
Year: 1986/1988
Genre: Rock
Notes: Discogs
Add. Notes:
Cover incl.: Yes
Encoder: FLAC
Bitrate: ~900 kBit/s (44.1 kHz/16 Bit/s)
Log & Cue incl.: Yes
Size: 405,28 MB
Password: “slam” (without ” “)


All Downloads/Hosters are compatible

Download 1
Turbobit.net
Rapidgator.net
KatFile.com
UploadRar.com
Download 2
Turbobit.net
Rapidgator.net
KatFile.com
UploadRar.com
Download 3
Turbobit.net
Rapidgator.net
KatFile.com
UploadRar.com

Tracklist:

1 - Intro - 1:40
2 - Rippin Corpse - 3:34
3 - Death Is Your Saviour - 3:56
4 - Pleasure To Kill - 4:08
5 - Riot Of Violence - 4:54
6 - The Pestilence - 6:50
7 - Carrion - 4:46
8 - Command Of The Blade - 3:55
9 - Under The Guillotine - 4:46
10 - Flag Of Hate - 3:54
11 - Take Their Lives - 6:25
12 - Awakening Of The Gods - 7:29

EAC-Log, CUE-Sheed & NFO:

Click to open spoiler
Exact Audio Copy V1.0 beta 3 from 29. August 2011

EAC extraction logfile from 23. August 2013, 12:00

Kreator / Pleasure to Kill / Flag of Hate [Noise, N 0037-3, W.Germany]

Used drive : PIONEER DVD-RW DVR-112D Adapter: 0 ID: 0

Read mode : Secure
Utilize accurate stream : Yes
Defeat audio cache : Yes
Make use of C2 pointers : No

Read offset correction : 48
Overread into Lead-In and Lead-Out : No
Fill up missing offset samples with silence : Yes
Delete leading and trailing silent blocks : No
Null samples used in CRC calculations : Yes
Used interface : Installed external ASPI interface

Used output format : User Defined Encoder
Selected bitrate : 1024 kBit/s
Quality : High
Add ID3 tag : No
Command line compressor : C:\Program Files\Exact Audio Copy\FLAC\FLAC.EXE
Additional command line options : -V -8 -T “Date=%year%” -T “Genre=%genre%” %source%

TOC of the extracted CD

Track | Start | Length | Start sector | End sector
———————————————————
1 | 0:00.00 | 1:40.15 | 0 | 7514
2 | 1:40.15 | 3:36.17 | 7515 | 23731
3 | 5:16.32 | 3:58.35 | 23732 | 41616
4 | 9:14.67 | 4:10.68 | 41617 | 60434
5 | 13:25.60 | 4:56.02 | 60435 | 82636
6 | 18:21.62 | 6:57.50 | 82637 | 113961
7 | 25:19.37 | 4:48.13 | 113962 | 135574
8 | 30:07.50 | 3:56.40 | 135575 | 153314
9 | 34:04.15 | 4:38.30 | 153315 | 174194
10 | 38:42.45 | 3:56.42 | 174195 | 191936
11 | 42:39.12 | 6:26.48 | 191937 | 220934
12 | 49:05.60 | 7:29.22 | 220935 | 254631

Range status and errors

Selected range

Filename C:\CDRip by Deminbek\Kreator – Pleasure to Kill , Flag of Hate [Noise, N 0037-3, W.Germany].wav

Peak level 100.0 %
Extraction speed 7.1 X
Range quality 100.0 %
Test CRC 98F7F652
Copy CRC 98F7F652
Copy OK

No errors occurred

AccurateRip summary

Track 1 accurately ripped (confidence 9) [4BE7C63F] (AR v2)
Track 2 accurately ripped (confidence 9) [128332AB] (AR v2)
Track 3 accurately ripped (confidence 9) [B5C870DD] (AR v2)
Track 4 accurately ripped (confidence 8) [8F6E18A7] (AR v2)
Track 5 accurately ripped (confidence 9) [8FA10D39] (AR v2)
Track 6 accurately ripped (confidence 9) [321BDDF5] (AR v2)
Track 7 accurately ripped (confidence 9) [7DD3B5DB] (AR v2)
Track 8 accurately ripped (confidence 9) [58B01EE6] (AR v2)
Track 9 accurately ripped (confidence 9) [A75814DC] (AR v2)
Track 10 accurately ripped (confidence 9) [0969E4B6] (AR v2)
Track 11 accurately ripped (confidence 9) [E7B461A4] (AR v2)
Track 12 accurately ripped (confidence 9) [365E3F01] (AR v2)

All tracks accurately ripped

End of status report

—- CUETools DB Plugin V2.1.3

[CTDB TOCID: FLwYucgUplG58mBX98UkJIO2WHc-] found, Submit result: FLwYucgUplG58mBX98UkJIO2WHc- has been confirmed
[d0ca6bd1] (27/27) Accurately ripped

==== Log checksum 330387011D9A02BEC3AA172C5DD360F3A666DB88917D9C067B249364AB2352B4 ====

REM GENRE “Thrash Metal”
REM DATE 1986/1988
REM DISCID 8B0D430C
REM COMMENT “ExactAudioCopy v1.0b3”
PERFORMER “Kreator”
TITLE “Pleasure To Kill (N 0037-3)”
FILE “Kreator – Pleasure To Kill (N 0037-3).flac” WAVE
TRACK 01 AUDIO
TITLE “Choir Of The Damned”
PERFORMER “Kreator”
INDEX 01 00:00:00
TRACK 02 AUDIO
TITLE “Ripping Corpse”
PERFORMER “Kreator”
INDEX 01 01:40:15
TRACK 03 AUDIO
TITLE “Death Is Your Saviour”
PERFORMER “Kreator”
INDEX 00 05:14:70
INDEX 01 05:16:32
TRACK 04 AUDIO
TITLE “Pleasure To Kill”
PERFORMER “Kreator”
INDEX 00 09:12:67
INDEX 01 09:14:67
TRACK 05 AUDIO
TITLE “Riot Of Violence”
PERFORMER “Kreator”
INDEX 00 13:23:60
INDEX 01 13:25:60
TRACK 06 AUDIO
TITLE “The Pestilence”
PERFORMER “Kreator”
INDEX 00 18:19:62
INDEX 01 18:21:62
TRACK 07 AUDIO
TITLE “Carrion”
PERFORMER “Kreator”
INDEX 00 25:18:00
INDEX 01 25:19:37
TRACK 08 AUDIO
TITLE “Command Of The Blade”
PERFORMER “Kreator”
INDEX 00 30:06:12
INDEX 01 30:07:50
TRACK 09 AUDIO
TITLE “Under The Guillotine”
PERFORMER “Kreator”
INDEX 00 34:03:15
INDEX 01 34:04:15
TRACK 10 AUDIO
TITLE “Flag Of Hate (Bonus track)”
PERFORMER “Kreator”
INDEX 00 38:41:07
INDEX 01 38:42:45
TRACK 11 AUDIO
TITLE “Take Their Lives (Bonus track)”
PERFORMER “Kreator”
INDEX 00 42:37:12
INDEX 01 42:39:12
TRACK 12 AUDIO
TITLE “Awakening Of The Gods (Bonus track)”
PERFORMER “Kreator”
INDEX 00 49:04:60
INDEX 01 49:05:60


Leave a Reply

Your email address will not be published. Required fields are marked *

Enter the text from the image below
 

This site uses Akismet to reduce spam. Learn how your comment data is processed.