Kreator – Pleasure To Kill / Flag Of Hate (Remastered Japanese Edition)




Artist: Kreator
Year: 1986/1991
Genre: Rock
Notes: Discogs
Add. Notes: Remastered Japanese Edition
Cover incl.: Yes
Encoder: FLAC
Bitrate: ~900 kBit/s (44.1 kHz/16 Bit/s)
Log & Cue incl.: Yes
Size: 491,47 MB
Password: “slam” (without ” “)


All Downloads/Hosters are compatible

Download 1
NitroFlare.com
KatFile.com
Turbobit.net
Rapidgator.net
UploadRar.com
Download 2
NitroFlare.com
KatFile.com
Turbobit.net
Rapidgator.net
UploadRar.com

Tracklist:

Pleasure To Kill
1 - Choir Of The Damned - 1:40
2 - Ripping Corpse	3:34
3 - Death Is Our Saviour - 3:56
4 - Pleasure To Kill	4:09
5 - Riot Of Violence	4:54
6 - The Pestilence	6:56
7 - Carrion - 4:47
8 - Command Of The Blade 3:55
9 - Under The Guillotine 4:37
Flag Of Hate Bonus
10 - Flag Of Hate - 3:54
11 - Take Their Lives  - 6:26
12 - Awakening Of The Gods  - 7:29
13 - Endless Pain  - 3:29
14 - Tormentor - 2:53
15 - Total Death  - 3:27

EAC-Log, CUE-Sheed & NFO:

Click to open spoiler
Exact Audio Copy V1.0 beta 3 from 29. August 2011

EAC extraction logfile from 23. August 2013, 15:44

Kreator / Pleasure To Kill / Flag Of Hate [Victor, VICP-8055, Japan]

Used drive : PIONEER DVD-RW DVR-112D Adapter: 0 ID: 0

Read mode : Secure
Utilize accurate stream : Yes
Defeat audio cache : Yes
Make use of C2 pointers : No

Read offset correction : 48
Overread into Lead-In and Lead-Out : No
Fill up missing offset samples with silence : Yes
Delete leading and trailing silent blocks : No
Null samples used in CRC calculations : Yes
Used interface : Installed external ASPI interface

Used output format : User Defined Encoder
Selected bitrate : 1024 kBit/s
Quality : High
Add ID3 tag : No
Command line compressor : C:\Program Files\Exact Audio Copy\FLAC\FLAC.EXE
Additional command line options : -V -8 -T “Date=%year%” -T “Genre=%genre%” %source%

TOC of the extracted CD

Track | Start | Length | Start sector | End sector
———————————————————
1 | 0:00.37 | 1:40.25 | 37 | 7561
2 | 1:40.62 | 3:35.70 | 7562 | 23756
3 | 5:16.57 | 3:58.35 | 23757 | 41641
4 | 9:15.17 | 4:10.65 | 41642 | 60456
5 | 13:26.07 | 4:56.05 | 60457 | 82661
6 | 18:22.12 | 6:57.50 | 82662 | 113986
7 | 25:19.62 | 4:48.13 | 113987 | 135599
8 | 30:08.00 | 3:56.40 | 135600 | 153339
9 | 34:04.40 | 4:38.30 | 153340 | 174219
10 | 38:42.70 | 3:56.42 | 174220 | 191961
11 | 42:39.37 | 6:26.48 | 191962 | 220959
12 | 49:06.10 | 7:31.25 | 220960 | 254809
13 | 56:37.35 | 3:31.15 | 254810 | 270649
14 | 60:08.50 | 2:54.37 | 270650 | 283736
15 | 63:03.12 | 3:27.60 | 283737 | 299321

Range status and errors

Selected range

Filename C:\CDRip by Deminbek\Kreator – Pleasure To Kill , Flag Of Hate [Victor, VICP-8055, Japan].wav

Peak level 100.0 %
Extraction speed 8.0 X
Range quality 99.9 %
Test CRC 19DB5C10
Copy CRC 19DB5C10
Copy OK

No errors occurred

AccurateRip summary

Track 1 accurately ripped (confidence 1) [7E3E5218] (AR v1)
Track 2 accurately ripped (confidence 1) [C191F41F] (AR v1)
Track 3 accurately ripped (confidence 1) [8DF8D624] (AR v1)
Track 4 accurately ripped (confidence 1) [DDD36A1D] (AR v1)
Track 5 accurately ripped (confidence 1) [EBAF875D] (AR v1)
Track 6 accurately ripped (confidence 1) [C5B1ADDD] (AR v1)
Track 7 accurately ripped (confidence 1) [ECCD36E7] (AR v1)
Track 8 accurately ripped (confidence 1) [F6242015] (AR v1)
Track 9 accurately ripped (confidence 1) [1C02824E] (AR v1)
Track 10 accurately ripped (confidence 1) [90117A2D] (AR v1)
Track 11 accurately ripped (confidence 1) [9BA6D1E8] (AR v1)
Track 12 accurately ripped (confidence 1) [24879B33] (AR v1)
Track 13 accurately ripped (confidence 1) [38655AAB] (AR v1)
Track 14 accurately ripped (confidence 1) [0B1C8AE1] (AR v1)
Track 15 accurately ripped (confidence 1) [EA7A0D88] (AR v1)

All tracks accurately ripped

End of status report

—- CUETools DB Plugin V2.1.3

[CTDB TOCID: j8LAq5INbjlEyRo7Fs8SHBdM0_Y-] disk not present in database, Submit result: discs with pregaps not supported in this protocol version

==== Log checksum 0DB1CCDEF7973BD14E0BC31BE20BEF03F08B90E031C9D8E3528DE1568F02ED97 ====

REM GENRE “Thrash Metal”
REM DATE 1986/1991
REM DISCID C00F960F
REM COMMENT “ExactAudioCopy v1.0b3”
CATALOG 4988002238873
PERFORMER “Kreator”
TITLE “Pleasure To Kill (VICP-8055)”
FILE “Kreator – Pleasure To Kill (VICP-8055).flac” WAVE
TRACK 01 AUDIO
TITLE “Choir Of The Damned”
PERFORMER “Kreator”
INDEX 00 00:00:00
INDEX 01 00:00:37
TRACK 02 AUDIO
TITLE “Ripping Corpse”
PERFORMER “Kreator”
INDEX 01 01:40:62
TRACK 03 AUDIO
TITLE “Death Is Your Saviour”
PERFORMER “Kreator”
INDEX 00 05:15:46
INDEX 01 05:16:57
TRACK 04 AUDIO
TITLE “Pleasure To Kill”
PERFORMER “Kreator”
INDEX 00 09:13:48
INDEX 01 09:15:17
TRACK 05 AUDIO
TITLE “Riot Of Violence”
PERFORMER “Kreator”
INDEX 00 13:24:36
INDEX 01 13:26:07
TRACK 06 AUDIO
TITLE “The Pestilence”
PERFORMER “Kreator”
INDEX 00 18:20:41
INDEX 01 18:22:12
TRACK 07 AUDIO
TITLE “Carrion”
PERFORMER “Kreator”
INDEX 00 25:18:51
INDEX 01 25:19:62
TRACK 08 AUDIO
TITLE “Command Of The Blade”
PERFORMER “Kreator”
INDEX 00 30:06:68
INDEX 01 30:08:00
TRACK 09 AUDIO
TITLE “Under The Guillotine”
PERFORMER “Kreator”
INDEX 00 34:03:71
INDEX 01 34:04:40
TRACK 10 AUDIO
TITLE “Flag Of Hate (Bonus track)”
PERFORMER “Kreator”
INDEX 00 38:41:61
INDEX 01 38:42:70
TRACK 11 AUDIO
TITLE “Take Their Lives (Bonus track)”
PERFORMER “Kreator”
INDEX 00 42:37:63
INDEX 01 42:39:37
TRACK 12 AUDIO
TITLE “Awakening Of The Gods (Bonus track)”
PERFORMER “Kreator”
INDEX 00 49:05:38
INDEX 01 49:06:10
TRACK 13 AUDIO
TITLE “Endless Pain (Bonus track)”
PERFORMER “Kreator”
INDEX 00 56:35:58
INDEX 01 56:37:35
TRACK 14 AUDIO
TITLE “Tormentor (Bonus track)”
PERFORMER “Kreator”
INDEX 00 60:07:31
INDEX 01 60:08:50
TRACK 15 AUDIO
TITLE “Total Death (Bonus track)”
PERFORMER “Kreator”
INDEX 00 63:01:58
INDEX 01 63:03:12


Leave a Reply

Your email address will not be published. Required fields are marked *

Enter the text from the image below
 

This site uses Akismet to reduce spam. Learn how your comment data is processed.