Kreator – Phantom Antichrist




[Total: 0    Average: 0/5]

Artist: Kreator
Year: 2012
Genre: Metal
Notes: Discogs
Add. Notes:
Cover incl.: Yes
Encoder: FLAC
Bitrate: ~1000 kBit/s (44.1 kHz/16 Bit/s)
Log & Cue incl.: Yes
Size: 405,68 MB
Password: “slam” (without ” “)


All Downloads/Hosters are compatible

Download 1
Share-online.biz
KatFile.com
Rapidgator.net
NitroFlare.com
Download 2
Share-online.biz
KatFile.com
Rapidgator.net
NitroFlare.com

Tracklist:

1 - Mars Mantra - 1:18
2 - Phantom Antichrist - 4:30
3 - Death To The World - 4:53
4 - From Flood Into Fire - 5:25
5 - Civilization Collapse - 4:13
6 - United In Hate - 4:30
7 - The Few, The Proud, The Broken - 4:37
8 - Your Heaven My Hell - 5:53
9 - Victory Will Come - 4:14
10 - Until Our Paths Cross Again - 5:48

EAC-Log, CUE-Sheed & NFO:

Click to open spoiler
Exact Audio Copy V1.0 beta 3 from 29. August 2011

EAC extraction logfile from 2. August 2013, 14:59

Kreator / Phantom Antichrist

Used drive : TSSTcorpCDDVDW SH-S203B Adapter: 2 ID: 0

Read mode : Secure
Utilize accurate stream : Yes
Defeat audio cache : Yes
Make use of C2 pointers : No

Read offset correction : 6
Overread into Lead-In and Lead-Out : No
Fill up missing offset samples with silence : Yes
Delete leading and trailing silent blocks : No
Null samples used in CRC calculations : Yes
Used interface : Native Win32 interface for Win NT & 2000

Used output format : Internal WAV Routines
Sample format : 44.100 Hz; 16 Bit; Stereo

TOC of the extracted CD

Track | Start | Length | Start sector | End sector
———————————————————
1 | 0:00.00 | 1:18.33 | 0 | 5882
2 | 1:18.33 | 4:30.69 | 5883 | 26201
3 | 5:49.27 | 4:53.08 | 26202 | 48184
4 | 10:42.35 | 5:25.42 | 48185 | 72601
5 | 16:08.02 | 4:13.28 | 72602 | 91604
6 | 20:21.30 | 4:30.40 | 91605 | 111894
7 | 24:51.70 | 4:37.35 | 111895 | 132704
8 | 29:29.30 | 5:53.02 | 132705 | 159181
9 | 35:22.32 | 4:14.07 | 159182 | 178238
10 | 39:36.39 | 5:48.54 | 178239 | 204392

Range status and errors

Selected range

Filename C:\Incoming\UncleSandy\Kreator – Phantom Antichrist.wav

Peak level 98.8 %
Extraction speed 2.7 X
Range quality 100.0 %
Test CRC 789FB2A8
Copy CRC 789FB2A8
Copy OK

No errors occurred

AccurateRip summary

Track 1 accurately ripped (confidence 55) [6ABB1E95] (AR v2)
Track 2 accurately ripped (confidence 55) [EA64594D] (AR v2)
Track 3 accurately ripped (confidence 55) [38BC2B0D] (AR v2)
Track 4 accurately ripped (confidence 54) [FA721B65] (AR v2)
Track 5 accurately ripped (confidence 54) [7B4DD350] (AR v2)
Track 6 accurately ripped (confidence 55) [701E7FD5] (AR v2)
Track 7 accurately ripped (confidence 54) [04FCFE5B] (AR v2)
Track 8 accurately ripped (confidence 54) [66840C14] (AR v2)
Track 9 accurately ripped (confidence 55) [5BF9739F] (AR v2)
Track 10 accurately ripped (confidence 54) [979FBE06] (AR v2)

All tracks accurately ripped

End of status report

—- CUETools DB Plugin V2.1.4

[CTDB TOCID: MHo47BmaKz33u06XDXl9uRGumuo-] found
Submit result:
Track | CTDB Status
1 | (81/81) Accurately ripped
2 | (81/81) Accurately ripped
3 | (81/81) Accurately ripped
4 | (81/81) Accurately ripped
5 | (81/81) Accurately ripped
6 | (81/81) Accurately ripped
7 | (81/81) Accurately ripped
8 | (81/81) Accurately ripped
9 | (81/81) Accurately ripped
10 | (81/81) Accurately ripped

==== Log checksum 69B08CA9DA8A65FFB827550AA979B86D1A493D1A3BB05B994C9C16B7E916B140 ====

REM GENRE “Thrash Metal”
REM DATE 2012
REM DISCID 770AA50A
REM COMMENT “ExactAudioCopy v1.0b3”
CATALOG 0727361258825
PERFORMER “Kreator”
TITLE “Phantom Antichrist (27361 25880)”
FILE “Kreator – Phantom Antichrist (27361 25880).flac” WAVE
TRACK 01 AUDIO
TITLE “Mars Mantra”
PERFORMER “Kreator”
INDEX 01 00:00:00
TRACK 02 AUDIO
TITLE “Phantom Antichrist”
PERFORMER “Kreator”
INDEX 01 01:18:33
TRACK 03 AUDIO
TITLE “Death To The World”
PERFORMER “Kreator”
INDEX 01 05:49:27
TRACK 04 AUDIO
TITLE “From Flood Into Fire”
PERFORMER “Kreator”
INDEX 01 10:42:35
TRACK 05 AUDIO
TITLE “Civilization Collapse”
PERFORMER “Kreator”
INDEX 01 16:08:02
TRACK 06 AUDIO
TITLE “United In Hate”
PERFORMER “Kreator”
INDEX 01 20:21:30
TRACK 07 AUDIO
TITLE “The Few, The Proud, The Broken”
PERFORMER “Kreator”
INDEX 01 24:51:70
TRACK 08 AUDIO
TITLE “Your Heaven My Hell”
PERFORMER “Kreator”
INDEX 01 29:29:30
TRACK 09 AUDIO
TITLE “Victory Will Come”
PERFORMER “Kreator”
INDEX 01 35:22:32
TRACK 10 AUDIO
TITLE “Until Our Paths Cross Again”
PERFORMER “Kreator”
INDEX 01 39:36:39


Spread the Download

Leave a Reply

Your email address will not be published. Required fields are marked *

Enter the text from the image below
 

This site uses Akismet to reduce spam. Learn how your comment data is processed.