Kreator – Outcast




Artist: Kreator
Year: 1997
Genre: Metal
Notes: Discogs
Add. Notes:
Cover incl.: Yes
Encoder: FLAC
Bitrate: ~1000 kBit/s (44.1 kHz/16 Bit/s)
Log & Cue incl.: Yes
Size: 377 MB
Password: “slam” (without ” “)


All Downloads/Hosters are compatible

Download 1
Turbobit.net
Rapidgator.net
UploadEver.com
KatFile.com
UsersDrive.com
Download 2
Turbobit.net
Rapidgator.net
UploadEver.com
KatFile.com
UsersDrive.com
Download 3
Turbobit.net
Rapidgator.net
UploadEver.com
KatFile.com
UsersDrive.com

Tracklist:

1 - Leave This World Behind - 3:31
2 - Phobia - 3:22
3 - Forever - 2:51
4 - Black Sunrise - 4:31
5 - Nonconformist - 3:16
6 - Enemy Unseen - 3:19
7 - Outcast - 4:54
8 - Stronger Than Before - 3:17
9 - Ruin Of Life - 3:53
10 - Whatever It May Take - 3:47
11 - Alive Again - 3:47
12 - Against The Rest - 2:38
13 - A Better Tomorrow - 4:12

EAC-Log, CUE-Sheed & NFO:

Click to open spoiler
Exact Audio Copy V1.0 beta 3 from 29. August 2011

EAC extraction logfile from 6. September 2013, 11:45

Kreator / Outcast

Used drive : TSSTcorpCDDVDW SH-S203B Adapter: 2 ID: 0

Read mode : Secure
Utilize accurate stream : Yes
Defeat audio cache : Yes
Make use of C2 pointers : No

Read offset correction : 6
Overread into Lead-In and Lead-Out : No
Fill up missing offset samples with silence : Yes
Delete leading and trailing silent blocks : No
Null samples used in CRC calculations : Yes
Used interface : Native Win32 interface for Win NT & 2000

Used output format : Internal WAV Routines
Sample format : 44.100 Hz; 16 Bit; Stereo

TOC of the extracted CD

Track | Start | Length | Start sector | End sector
———————————————————
1 | 0:00.00 | 3:29.00 | 0 | 15674
2 | 3:29.00 | 3:22.40 | 15675 | 30864
3 | 6:51.40 | 2:51.62 | 30865 | 43751
4 | 9:43.27 | 4:32.48 | 43752 | 64199
5 | 14:16.00 | 3:15.00 | 64200 | 78824
6 | 17:31.00 | 3:21.40 | 78825 | 93939
7 | 20:52.40 | 4:53.62 | 93940 | 115976
8 | 25:46.27 | 3:16.48 | 115977 | 130724
9 | 29:03.00 | 3:53.42 | 130725 | 148241
10 | 32:56.42 | 3:47.18 | 148242 | 165284
11 | 36:43.60 | 3:47.10 | 165285 | 182319
12 | 40:30.70 | 2:38.52 | 182320 | 194221
13 | 43:09.47 | 4:12.35 | 194222 | 213156

Range status and errors

Selected range

Filename C:\Incoming\UncleSandy\Kreator – Outcast.wav

Peak level 100.0 %
Extraction speed 6.8 X
Range quality 100.0 %
Test CRC C5473197
Copy CRC C5473197
Copy OK

No errors occurred

AccurateRip summary

Track 1 accurately ripped (confidence 6) [33A28102] (AR v2)
Track 2 accurately ripped (confidence 6) [1E7B7FD6] (AR v2)
Track 3 accurately ripped (confidence 5) [3668AC95] (AR v2)
Track 4 accurately ripped (confidence 5) [0460332E] (AR v2)
Track 5 accurately ripped (confidence 5) [FA4DED89] (AR v2)
Track 6 accurately ripped (confidence 5) [2EE194E2] (AR v2)
Track 7 accurately ripped (confidence 5) [1D89BEB4] (AR v2)
Track 8 accurately ripped (confidence 5) [477E978D] (AR v2)
Track 9 accurately ripped (confidence 5) [A117B508] (AR v2)
Track 10 accurately ripped (confidence 5) [515CFA83] (AR v2)
Track 11 accurately ripped (confidence 5) [DA90C0F7] (AR v2)
Track 12 accurately ripped (confidence 5) [8CDB9418] (AR v2)
Track 13 accurately ripped (confidence 5) [2504AF44] (AR v2)

All tracks accurately ripped

End of status report

—- CUETools DB Plugin V2.1.4

[CTDB TOCID: pqjm75aelTQTZDsCqLyOna9yViw-] found
Submit result:
Track | CTDB Status
1 | (29/29) Accurately ripped
2 | (28/29) Accurately ripped
3 | (28/29) Accurately ripped
4 | (28/29) Accurately ripped
5 | (28/29) Accurately ripped
6 | (28/29) Accurately ripped
7 | (28/29) Accurately ripped
8 | (28/29) Accurately ripped
9 | (28/29) Accurately ripped
10 | (28/29) Accurately ripped
11 | (26/29) Accurately ripped
12 | (28/29) Accurately ripped
13 | (28/29) Accurately ripped

==== Log checksum BBB8A340547BA587D75E5E5138790639ED5CABBDBC199E5E3583914433A156C2 ====

REM GENRE “Thrash Metal”
REM DATE 1997
REM DISCID AB0B1A0D
REM COMMENT “ExactAudioCopy v1.0b3”
CATALOG 7432145262240
PERFORMER “Kreator”
TITLE “Outcast (74321 45262 2)”
FILE “Kreator – Outcast (74321 45262 2).flac” WAVE
TRACK 01 AUDIO
TITLE “Leave This World Behind”
PERFORMER “Kreator”
ISRC

Leave a Reply

Your email address will not be published. Required fields are marked *

This site uses Akismet to reduce spam. Learn how your comment data is processed.