Kreator – Outcast (Remastered Deluxe Edition)




Artist: Kreator
Year: 1997/2018
Genre: Metal
Notes: Discogs
Add. Notes: Remastered Deluxe Edition
Cover incl.: Yes
Encoder: FLAC
Bitrate: ~1000 kBit/s (44.1 kHz/16 Bit/s)
Log & Cue incl.: Yes
Size: 732,33 MB
Password: “slam” (without ” “)


All Downloads/Hosters are compatible

Download 1
Turbobit.net
Rapidgator.net
KatFile.com
UploadRar.com
Download 2
Turbobit.net
Rapidgator.net
KatFile.com
UploadRar.com
Download 3
Turbobit.net
Rapidgator.net
KatFile.com
UploadRar.com

Tracklist:

Disc 1
1-1 - Leave This World Behind - 3:30
1-2 - Phobia - 3:23
1-3 - Forever - 2:52
1-4 - Black Sunrise - 4:33
1-5 - Nonconformist - 3:15
1-6 - Enemy Unseen - 3:21
1-7 - Outcast - 4:54
1-8 - Stronger Than Before - 3:17
1-9 - Ruin Of Life - 3:55
1-10 - Whatever It May Take - 3:46
1-11 - Alive Again - 3:47
1-12 - Against The Rest - 2:39
1-13 - A Better Tomorrow - 4:14
Disc 2 - Live At Dynamo Open Air 1998
2-1 - Intro: Dr. Wagner, Part 3 - 0:57
2-2 - Terror Zone - 6:14
2-3 - Lost - 4:10
2-4 - Leave This World Behind - 3:16
2-5 - Phobia - 3:54
2-6 - Black Sunrise - 4:53
2-7 - Choir Of The Damned - 1:26
2-8 - Pleasure To Kill - 3:01
2-9 - Whatever It May Take - 4:03
2-10 - Extreme Aggression - 4:15
2-11 - Renewal - 4:51

EAC-Log, CUE-Sheed & NFO:

Click to open spoiler
Exact Audio Copy V1.3 from 2. September 2016

EAC extraction logfile from 2. April 2018, 10:48

Kreator / Outcast (NOISE2CD049)

Used drive : ASUS DRW-24B1ST Adapter: 1 ID: 1

Read mode : Secure
Utilize accurate stream : Yes
Defeat audio cache : Yes
Make use of C2 pointers : No

Read offset correction : 6
Overread into Lead-In and Lead-Out : No
Fill up missing offset samples with silence : Yes
Delete leading and trailing silent blocks : No
Null samples used in CRC calculations : Yes
Used interface : Native Win32 interface for Win NT & 2000

Used output format : User Defined Encoder
Selected bitrate : 1024 kBit/s
Quality : High
Add ID3 tag : No
Command line compressor : C:\Program Files (x86)\Exact Audio Copy\Flac\flac.exe
Additional command line options : -V -8 -T “Genre=%genre%” -T “Artist=%artist%” -T “Title=%title%” -T “Album=%albumtitle%” -T “Date=%year%” -T “Tracknumber=%tracknr%” -T “Comment=%comment%” %source%

TOC of the extracted CD

Track | Start | Length | Start sector | End sector
———————————————————
1 | 0:00.00 | 3:30.01 | 0 | 15750
2 | 3:30.01 | 3:22.38 | 15751 | 30938
3 | 6:52.39 | 2:51.64 | 30939 | 43827
4 | 9:44.28 | 4:32.49 | 43828 | 64276
5 | 14:17.02 | 3:14.74 | 64277 | 78900
6 | 17:32.01 | 3:20.65 | 78901 | 93965
7 | 20:52.66 | 4:54.33 | 93966 | 116048
8 | 25:47.24 | 3:16.40 | 116049 | 130788
9 | 29:03.64 | 3:54.69 | 130789 | 148407
10 | 32:58.58 | 3:46.02 | 148408 | 165359
11 | 36:44.60 | 3:47.11 | 165360 | 182395
12 | 40:31.71 | 2:38.58 | 182396 | 194303
13 | 43:10.54 | 4:13.67 | 194304 | 213345

Range status and errors

Selected range

Filename E:\Torrent\Ginger Devil\Kreator 2018\1997 – Outcast (NOISE2CD049)\CD-1\Kreator – Outcast (NOISE2CD049).wav

Peak level 97.0 %
Extraction speed 5.3 X
Range quality 100.0 %
Test CRC B4E3C836
Copy CRC B4E3C836
Copy OK

No errors occurred

AccurateRip summary

Track 1 not present in database
Track 2 not present in database
Track 3 not present in database
Track 4 not present in database
Track 5 not present in database
Track 6 not present in database
Track 7 not present in database
Track 8 not present in database
Track 9 not present in database
Track 10 not present in database
Track 11 not present in database
Track 12 not present in database
Track 13 not present in database

None of the tracks are present in the AccurateRip database

End of status report

—- CUETools DB Plugin V2.1.6

[CTDB TOCID: W4QGpFCYA6npx_aimDWTjMSQVQI-] found
Submit result: W4QGpFCYA6npx_aimDWTjMSQVQI- has been confirmed
Track | CTDB Status
1 | (9/9) Accurately ripped
2 | (9/9) Accurately ripped
3 | (9/9) Accurately ripped
4 | (9/9) Accurately ripped
5 | (9/9) Accurately ripped
6 | (9/9) Accurately ripped
7 | (9/9) Accurately ripped
8 | (9/9) Accurately ripped
9 | (9/9) Accurately ripped
10 | (9/9) Accurately ripped
11 | (9/9) Accurately ripped
12 | (9/9) Accurately ripped
13 | (9/9) Accurately ripped

==== Log checksum 8FE4E5E00F505DAFFBCB1E958CF249D1FF90545B9C0CFFC273DFFE2494F9815E ====

Exact Audio Copy V1.3 from 2. September 2016

EAC extraction logfile from 2. April 2018, 11:21

Kreator / Live At Dynamo Open Air 1998 (NOISE2CD049)

Used drive : ASUS DRW-24B1ST Adapter: 1 ID: 1

Read mode : Secure
Utilize accurate stream : Yes
Defeat audio cache : Yes
Make use of C2 pointers : No

Read offset correction : 6
Overread into Lead-In and Lead-Out : No
Fill up missing offset samples with silence : Yes
Delete leading and trailing silent blocks : No
Null samples used in CRC calculations : Yes
Used interface : Native Win32 interface for Win NT & 2000

Used output format : User Defined Encoder
Selected bitrate : 1024 kBit/s
Quality : High
Add ID3 tag : No
Command line compressor : C:\Program Files (x86)\Exact Audio Copy\Flac\flac.exe
Additional command line options : -V -8 -T “Genre=%genre%” -T “Artist=%artist%” -T “Title=%title%” -T “Album=%albumtitle%” -T “Date=%year%” -T “Tracknumber=%tracknr%” -T “Comment=%comment%” %source%

TOC of the extracted CD

Track | Start | Length | Start sector | End sector
———————————————————
1 | 0:00.00 | 0:57.06 | 0 | 4280
2 | 0:57.06 | 6:14.22 | 4281 | 32352
3 | 7:11.28 | 4:10.18 | 32353 | 51120
4 | 11:21.46 | 3:15.55 | 51121 | 65800
5 | 14:37.26 | 3:54.12 | 65801 | 83362
6 | 18:31.38 | 4:53.06 | 83363 | 105343
7 | 23:24.44 | 1:25.54 | 105344 | 111772
8 | 24:50.23 | 3:01.13 | 111773 | 125360
9 | 27:51.36 | 4:02.74 | 125361 | 143584
10 | 31:54.35 | 4:15.16 | 143585 | 162725
11 | 36:09.51 | 4:51.15 | 162726 | 184565

Range status and errors

Selected range

Filename E:\Torrent\Ginger Devil\Kreator 2018\1997 – Outcast (NOISE2CD049)\CD-2\Kreator – Live At Dynamo Open Air 1998 (NOISE2CD049).wav

Peak level 97.0 %
Extraction speed 2.8 X
Range quality 100.0 %
Test CRC C6187E34
Copy CRC C6187E34
Copy OK

No errors occurred

AccurateRip summary

Track 1 not present in database
Track 2 not present in database
Track 3 not present in database
Track 4 not present in database
Track 5 not present in database
Track 6 not present in database
Track 7 not present in database
Track 8 not present in database
Track 9 not present in database
Track 10 not present in database
Track 11 not present in database

None of the tracks are present in the AccurateRip database

End of status report

—- CUETools DB Plugin V2.1.6

[CTDB TOCID: WTs_oSHBfXKkAnlqdv9tR2rm0Xk-] found
Submit result: WTs_oSHBfXKkAnlqdv9tR2rm0Xk- has been confirmed
Track | CTDB Status
1 | (6/6) Accurately ripped
2 | (6/6) Accurately ripped
3 | (6/6) Accurately ripped
4 | (6/6) Accurately ripped
5 | (6/6) Accurately ripped
6 | (6/6) Accurately ripped
7 | (6/6) Accurately ripped
8 | (6/6) Accurately ripped
9 | (6/6) Accurately ripped
10 | (6/6) Accurately ripped
11 | (6/6) Accurately ripped

==== Log checksum 3AC9020955BAA029CCCAB65AF101509C4D0D548EDEF0F7ED18BD1E4E21A54CAE ====

REM GENRE “Thrash Metal”
REM DATE 1997/2018
REM DISCID AD0B1C0D
REM COMMENT “ExactAudioCopy v1.3”
CATALOG 4050538354348
PERFORMER “Kreator”
TITLE “Outcast (NOISE2CD049)”
REM COMPOSER “Kreator”
FILE “Kreator – Outcast (NOISE2CD049).flac” WAVE
TRACK 01 AUDIO
TITLE “Leave This World Behind”
PERFORMER “Kreator”
REM COMPOSER “Kreator”
ISRC Tb6AW1702821
INDEX 01 00:00:00
TRACK 02 AUDIO
TITLE “Phobia”
PERFORMER “Kreator”
REM COMPOSER “Kreator”
ISRC Tb6AW1702821
INDEX 01 03:30:01
TRACK 03 AUDIO
TITLE “Forever”
PERFORMER “Kreator”
REM COMPOSER “Kreator”
ISRC Tb6AW1702823
INDEX 00 06:51:50
INDEX 01 06:52:39
TRACK 04 AUDIO
TITLE “Black Sunrise”
PERFORMER “Kreator”
REM COMPOSER “Kreator”
ISRC Tb6AW1702824
INDEX 00 09:43:56
INDEX 01 09:44:28
TRACK 05 AUDIO
TITLE “Nonconformist”
PERFORMER “Kreator”
REM COMPOSER “Kreator”
ISRC Tb6AW1702825
INDEX 00 14:15:38
INDEX 01 14:17:02
TRACK 06 AUDIO
TITLE “Enemy Unseen”
PERFORMER “Kreator”
REM COMPOSER “Kreator”
ISRC Tb6AW1702826
INDEX 01 17:32:01
TRACK 07 AUDIO
TITLE “Outcast”
PERFORMER “Kreator”
REM COMPOSER “Kreator”
ISRC Tb6AW1702826
INDEX 01 20:52:66
TRACK 08 AUDIO
TITLE “Stronger Than Before”
PERFORMER “Kreator”
REM COMPOSER “Kreator”
ISRC Tb6AW1702828
INDEX 00 25:46:54
INDEX 01 25:47:24
TRACK 09 AUDIO
TITLE “Ruin Of Life”
PERFORMER “Kreator”
REM COMPOSER “Kreator”
ISRC Tb6AW1702829
INDEX 01 29:03:64
TRACK 10 AUDIO
TITLE “Whatever It May Take”
PERFORMER “Kreator”
REM COMPOSER “Kreator”
ISRC Tb6AW1702830
INDEX 01 32:58:58
TRACK 11 AUDIO
TITLE “Alive Again”
PERFORMER “Kreator”
REM COMPOSER “Kreator”
ISRC Tb6AW1702831
INDEX 00 36:44:45
INDEX 01 36:44:60
TRACK 12 AUDIO
TITLE “Against The Rest”
PERFORMER “Kreator”
REM COMPOSER “Kreator”
ISRC Tb6AW1702832
INDEX 00 40:31:28
INDEX 01 40:31:71
TRACK 13 AUDIO
TITLE “A Better Tomorrow”
PERFORMER “Kreator”
REM COMPOSER “Kreator”
ISRC Tb6AW1702833
INDEX 00 43:10:23
INDEX 01 43:10:54

REM GENRE “Thrash Metal”
REM DATE 1998/2018
REM DISCID 91099C0B
REM COMMENT “ExactAudioCopy v1.3”
CATALOG 4050538354355
PERFORMER “Kreator”
TITLE “Live At Dynamo Open Air 1998 (NOISE2CD049)”
REM COMPOSER “Kreator”
FILE “Kreator – Live At Dynamo Open Air 1998 (NOISE2CD049).flac” WAVE
TRACK 01 AUDIO
TITLE “Intro: Dr. Wagner, Part 3”
PERFORMER “Kreator”
REM COMPOSER “Kreator”
ISRC Tb6AW1702834
INDEX 01 00:00:00
TRACK 02 AUDIO
TITLE “Terror Zone”
PERFORMER “Kreator”
REM COMPOSER “Kreator”
ISRC Tb6AW1702835
INDEX 01 00:57:06
TRACK 03 AUDIO
TITLE “Lost”
PERFORMER “Kreator”
REM COMPOSER “Kreator”
ISRC Tb6AW1702836
INDEX 01 07:11:28
TRACK 04 AUDIO
TITLE “Leave This World Behind”
PERFORMER “Kreator”
REM COMPOSER “Kreator”
ISRC Tb6AW1702837
INDEX 01 11:21:46
TRACK 05 AUDIO
TITLE “Phobia”
PERFORMER “Kreator”
REM COMPOSER “Kreator”
ISRC Tb6AW1702838
INDEX 01 14:37:26
TRACK 06 AUDIO
TITLE “Black Sunrise”
PERFORMER “Kreator”
REM COMPOSER “Kreator”
ISRC Tb6AW1702839
INDEX 01 18:31:38
TRACK 07 AUDIO
TITLE “Choir Of The Damned”
PERFORMER “Kreator”
REM COMPOSER “Kreator”
ISRC Tb6AW1702840
INDEX 01 23:24:44
TRACK 08 AUDIO
TITLE “Pleasure To Kill”
PERFORMER “Kreator”
REM COMPOSER “Kreator”
ISRC Tb6AW1702841
INDEX 01 24:50:23
TRACK 09 AUDIO
TITLE “Whatever It May Take”
PERFORMER “Kreator”
REM COMPOSER “Kreator”
ISRC Tb6AW1702842
INDEX 01 27:51:36
TRACK 10 AUDIO
TITLE “Extreme Aggression”
PERFORMER “Kreator”
REM COMPOSER “Kreator”
ISRC Tb6AW1702843
INDEX 01 31:54:35
TRACK 11 AUDIO
TITLE “Renewal”
PERFORMER “Kreator”
REM COMPOSER “Kreator”
ISRC Tb6AW1702843
INDEX 01 36:09:51


Leave a Reply

Your email address will not be published. Required fields are marked *

This site uses Akismet to reduce spam. Learn how your comment data is processed.