Kreator – Outcast (Japanese Edition)




Artist: Kreator
Year: 1997
Genre: Metal
Notes: Discogs
Add. Notes: Japanese Edition
Cover incl.: Yes
Encoder: FLAC
Bitrate: ~1000 kBit/s (44.1 kHz/16 Bit/s)
Log & Cue incl.: Yes
Size: 352,16 MB
Password: “slam” (without ” “)


All Downloads/Hosters are compatible

Download 1
Turbobit.net
Rapidgator.net
KatFile.com
UploadRar.com
Download 2
Turbobit.net
Rapidgator.net
KatFile.com
UploadRar.com

Tracklist:

1 - Leave This World Behind - 3:31
2 - Phobia - 3:22
3 - Forever - 2:51
4 - Black Sunrise - 4:31
5 - Nonconformist - 3:16
6 - Enemy Unseen - 3:19
7 - Outcast - 4:54
8 - Stronger Than Before - 3:17
9 - Ruin Of Life - 3:53
10 - Whatever It May Take - 3:47
11 - Alive Again - 3:47
12 - Against The Rest - 2:38
13 - A Better Tomorrow - 4:12

EAC-Log, CUE-Sheed & NFO:

Click to open spoiler
Exact Audio Copy V1.3 from 2. September 2016

Отчёт EAC об извлечении, выполненном 14. августа 2017, 23:08

Kreator / Outcast

Дисковод: ASUS DRW-24F1MT Adapter: 1 ID: 0

Режим чтения : Достоверность
Использование точного потока : Да
Отключение кэша аудио : Да
Использование указателей C2 : Нет

Коррекция смещения при чтении : 6
Способность читать области Lead-in и Lead-out : Нет
Заполнение пропущенных сэмплов тишиной : Да
Удаление блоков с тишиной в начале и конце : Нет
При вычислениях CRC использовались нулевые сэмплы : Да
Интерфейс : Встроенный Win32-интерфейс для Win NT/2000

Выходной формат : Пользовательский кодировщик
Выбранный битрейт : 128 kBit/s
Качество : Высокий
Добавление ID3-тега : Нет
Утилита сжатия : C:\Program Files (x86)\Exact Audio Copy\Flac\flac.exe
Дополнительные параметры : -V -8 -T “Date=%year%” -T “Genre=%genre%” %source%

TOC извлечённого CD

Трек | Старт | Длительность | Начальный сектор | Конечный сектор
———————————————————————
1 | 0:00.37 | 3:29.62 | 37 | 15773
2 | 3:30.24 | 3:22.40 | 15774 | 30963
3 | 6:52.64 | 2:51.70 | 30964 | 43858
4 | 9:44.59 | 4:32.18 | 43859 | 64276
5 | 14:17.02 | 3:15.22 | 64277 | 78923
6 | 17:32.24 | 3:21.15 | 78924 | 94013
7 | 20:53.39 | 4:53.63 | 94014 | 116051
8 | 25:47.27 | 3:17.00 | 116052 | 130826
9 | 29:04.27 | 3:54.27 | 130827 | 148403
10 | 32:58.54 | 3:46.30 | 148404 | 165383
11 | 36:45.09 | 3:46.60 | 165384 | 182393
12 | 40:31.69 | 2:39.05 | 182394 | 194323
13 | 43:10.74 | 4:13.25 | 194324 | 213323

Характеристики диапазона извлечения и сообщения об ошибках

Выбранный диапазон

Имя файла C:\Users\Admin\Desktop\Kreator – Outcast (Japan)\Kreator – Outcast.wav

Пиковый уровень 100.0 %
Скорость извлечения 2.4 X
Качество диапазона 100.0 %
CRC теста 413BE13C
CRC копии 413BE13C
Копирование… OK

Ошибок не произошло

AccurateRip: сводка

Трек 1 точность не определена (достоверность 1) [CFA57DBC], AccurateRip вернул [79860DD1] (AR v2)
Трек 2 точность не определена (достоверность 1) [6E136C11], AccurateRip вернул [57CD750F] (AR v2)
Трек 3 точность не определена (достоверность 1) [70778C1B], AccurateRip вернул [8F56197E] (AR v2)
Трек 4 точность не определена (достоверность 1) [B4F385C1], AccurateRip вернул [CC646B33] (AR v2)
Трек 5 точность не определена (достоверность 1) [A7A419FD], AccurateRip вернул [54A68904] (AR v2)
Трек 6 точность не определена (достоверность 1) [227199C7], AccurateRip вернул [E2A9E0C6] (AR v2)
Трек 7 точность не определена (достоверность 1) [9C967DB7], AccurateRip вернул [DE902DAC] (AR v2)
Трек 8 точность не определена (достоверность 1) [9A909BAB], AccurateRip вернул [75764DCF] (AR v2)
Трек 9 точность не определена (достоверность 1) [FD149926], AccurateRip вернул [38B3D7F0] (AR v2)
Трек 10 точность не определена (достоверность 1) [5C8254E3], AccurateRip вернул [CDA7915C] (AR v2)
Трек 11 точность не определена (достоверность 1) [409270EB], AccurateRip вернул [D7039411] (AR v2)
Трек 12 точность не определена (достоверность 1) [F9792AB0], AccurateRip вернул [80872389] (AR v2)
Трек 13 точность не определена (достоверность 1) [807F9188], AccurateRip вернул [A1BA6B02] (AR v2)

Ни один трек не прошёл проверки на точность
В вашей базе может быть иной вариант штамповки диска

Конец отчёта

==== Контрольная сумма отчёта 6CDEB9D0FE151AE02B575681008DF49C14A97A349EDED0EAC2D3C867084400CF ====

REM GENRE Thrash Metal
REM DATE 1997
REM DISCID B00B1C0D
REM COMMENT “ExactAudioCopy v1.3”
PERFORMER “Kreator”
TITLE “Outcast (VICP-60062)”
FILE “Kreator – Outcast (VICP-60062).flac” WAVE
TRACK 01 AUDIO
TITLE “Leave This World Behind”
PERFORMER “Kreator”
INDEX 00 00:00:00
INDEX 01 00:00:37
TRACK 02 AUDIO
TITLE “Phobia”
PERFORMER “Kreator”
INDEX 01 03:30:24
TRACK 03 AUDIO
TITLE “Forever”
PERFORMER “Kreator”
INDEX 00 06:52:43
INDEX 01 06:52:64
TRACK 04 AUDIO
TITLE “Black Sunrise”
PERFORMER “Kreator”
INDEX 00 09:44:38
INDEX 01 09:44:59
TRACK 05 AUDIO
TITLE “Nonconformist”
PERFORMER “Kreator”
INDEX 00 14:16:23
INDEX 01 14:17:02
TRACK 06 AUDIO
TITLE “Enemy Unseen”
PERFORMER “Kreator”
INDEX 01 17:32:24
TRACK 07 AUDIO
TITLE “Outcast”
PERFORMER “Kreator”
INDEX 01 20:53:39
TRACK 08 AUDIO
TITLE “Stronger Than Before”
PERFORMER “Kreator”
INDEX 00 25:47:13
INDEX 01 25:47:27
TRACK 09 AUDIO
TITLE “Ruin Of Life”
PERFORMER “Kreator”
INDEX 01 29:04:27
TRACK 10 AUDIO
TITLE “Whatever It May Take”
PERFORMER “Kreator”
INDEX 01 32:58:54
TRACK 11 AUDIO
TITLE “Alive Again”
PERFORMER “Kreator”
INDEX 00 36:44:65
INDEX 01 36:45:09
TRACK 12 AUDIO
TITLE “Against The Rest”
PERFORMER “Kreator”
INDEX 00 40:31:60
INDEX 01 40:31:69
TRACK 13 AUDIO
TITLE “A Better Tomorrow”
PERFORMER “Kreator”
INDEX 00 43:10:65
INDEX 01 43:10:74


Leave a Reply

Your email address will not be published. Required fields are marked *

This site uses Akismet to reduce spam. Learn how your comment data is processed.