Kreator – Live Kreation




[Total: 0    Average: 0/5]

Artist: Kreator
Year: 2003
Genre: Rock
Notes: Discogs
Add. Notes:
Cover incl.: Yes
Encoder: FLAC
Bitrate: ~1000 kBit/s (44.1 kHz/16 Bit/s)
Log & Cue incl.: Yes
Size: 773,57 MB
Password: “slam” (without ” “)


All Downloads/Hosters are compatible

Download 1
Share-online.biz
KatFile.com
Rapidgator.net
Download 2
Share-online.biz
KatFile.com
Rapidgator.net

Tracklist:

1-1 - The Patriarch - 1:08
1-2 - Violent Revolution - 5:06
1-3 - Reconquering The Throne - 4:51
1-4 - Extreme Aggression - 4:09
1-5 - People Of The Lie - 3:16
1-6 - All Of The Same Blood - 5:53
1-7 - Phobia - 3:26
1-8 - Pleasure To Kill - 2:48
1-9 - Renewal - 3:59
1-10 - Servant In Heaven - King In Hell - 5:08
1-11 - Black Sunrise - 4:41
1-12 - Terrible Certainty - 4:45
1-13 - Riot Of Violence - 5:46

2-1 - Lost - 3:50
2-2 - Coma Of Souls - 5:02
2-3 - Second Awakening - 4:51
2-4 - Terrorzone - 6:11
2-5 - Betrayer - 4:50
2-6 - Leave This World Behind - 3:27
2-7 - Under The Guillotine - 4:48
2-8 - Awakening Of The Gods - 3:17
2-9 - Golden Age - 4:38
2-10 - Flag Of Hate - 3:22
2-11 - Tormentor - 3:55

EAC-Log, CUE-Sheed & NFO:

Click to open spoiler
Exact Audio Copy V1.0 beta 3 from 29. August 2011

EAC extraction logfile from 16. September 2013, 21:40

Kreator / Live Kreation – CD 1

Used drive : Optiarc DVD RW AD-7203A Adapter: 3 ID: 1

Read mode : Secure
Utilize accurate stream : Yes
Defeat audio cache : Yes
Make use of C2 pointers : No

Read offset correction : 48
Overread into Lead-In and Lead-Out : No
Fill up missing offset samples with silence : Yes
Delete leading and trailing silent blocks : No
Null samples used in CRC calculations : Yes
Used interface : Native Win32 interface for Win NT & 2000

Used output format : User Defined Encoder
Selected bitrate : 768 kBit/s
Quality : High
Add ID3 tag : No
Command line compressor : C:\Program Files (x86)\Exact Audio Copy\FLAC\FLAC.EXE
Additional command line options : -6 -V -T “ARTIST=%artist%” -T “TITLE=%title%” -T “ALBUM=%albumtitle%” -T “DATE=%year%” -T “TRACKNUMBER=%tracknr%” -T “GENRE=%genre%” -T “COMMENT=%comment%” -T “BAND=%albuminterpret%” -T “ALBUMARTIST=%albuminterpret%” -T “COMPOSER=%composer%” %haslyrics%–tag-from-file=LYRICS=”%lyricsfile%”%haslyrics% -T “DISCNUMBER=%cdnumber%” -T “TOTALDISCS=%totalcds%” -T “TOTALTRACKS=%numtracks%” %hascover%–picture=”%coverfile%”%hascover% %source% -o %dest%

TOC of the extracted CD

Track | Start | Length | Start sector | End sector
———————————————————
1 | 0:00.00 | 1:08.60 | 0 | 5159
2 | 1:08.60 | 5:06.24 | 5160 | 28133
3 | 6:15.09 | 4:50.73 | 28134 | 49956
4 | 11:06.07 | 4:09.29 | 49957 | 68660
5 | 15:15.36 | 3:16.69 | 68661 | 83429
6 | 18:32.30 | 5:53.39 | 83430 | 109943
7 | 24:25.69 | 3:26.06 | 109944 | 125399
8 | 27:52.00 | 2:48.66 | 125400 | 138065
9 | 30:40.66 | 3:59.52 | 138066 | 156042
10 | 34:40.43 | 5:08.23 | 156043 | 179165
11 | 39:48.66 | 4:41.48 | 179166 | 200288
12 | 44:30.39 | 4:45.22 | 200289 | 221685
13 | 49:15.61 | 5:46.52 | 221686 | 247687

Range status and errors

Selected range

Filename C:\records\KREATOR 3 album collection\2003 Live Kreation\Kreator – Live Kreation – CD 1.wav

Peak level 100.0 %
Extraction speed 4.0 X
Range quality 100.0 %
Test CRC 759E09BE
Copy CRC 759E09BE
Copy OK

No errors occurred

AccurateRip summary

Track 1 accurately ripped (confidence 15) [B6A71438] (AR v2)
Track 2 accurately ripped (confidence 15) [FADBBAD0] (AR v2)
Track 3 accurately ripped (confidence 15) [5E2F4EA5] (AR v2)
Track 4 accurately ripped (confidence 15) [F87082CF] (AR v2)
Track 5 accurately ripped (confidence 15) [A28A3D23] (AR v2)
Track 6 accurately ripped (confidence 15) [E4AA9682] (AR v2)
Track 7 accurately ripped (confidence 15) [B5E59B8B] (AR v2)
Track 8 accurately ripped (confidence 15) [1734F56D] (AR v2)
Track 9 accurately ripped (confidence 15) [AD9CF3F9] (AR v2)
Track 10 accurately ripped (confidence 15) [B0072640] (AR v2)
Track 11 accurately ripped (confidence 15) [4439ACC3] (AR v2)
Track 12 accurately ripped (confidence 15) [908A3926] (AR v2)
Track 13 accurately ripped (confidence 15) [1A668C6A] (AR v2)

All tracks accurately ripped

End of status report

==== Log checksum F04CB4CC4057111A02AF1FF509C61E36DEC2F493C128D0D924E13E37EF386F76 ====

Exact Audio Copy V1.0 beta 3 from 29. August 2011

EAC extraction logfile from 16. September 2013, 22:07

Kreator / Live Kreation – CD 2

Used drive : Optiarc DVD RW AD-7203A Adapter: 3 ID: 1

Read mode : Secure
Utilize accurate stream : Yes
Defeat audio cache : Yes
Make use of C2 pointers : No

Read offset correction : 48
Overread into Lead-In and Lead-Out : No
Fill up missing offset samples with silence : Yes
Delete leading and trailing silent blocks : No
Null samples used in CRC calculations : Yes
Used interface : Native Win32 interface for Win NT & 2000

Used output format : User Defined Encoder
Selected bitrate : 768 kBit/s
Quality : High
Add ID3 tag : No
Command line compressor : C:\Program Files (x86)\Exact Audio Copy\FLAC\FLAC.EXE
Additional command line options : -6 -V -T “ARTIST=%artist%” -T “TITLE=%title%” -T “ALBUM=%albumtitle%” -T “DATE=%year%” -T “TRACKNUMBER=%tracknr%” -T “GENRE=%genre%” -T “COMMENT=%comment%” -T “BAND=%albuminterpret%” -T “ALBUMARTIST=%albuminterpret%” -T “COMPOSER=%composer%” %haslyrics%–tag-from-file=LYRICS=”%lyricsfile%”%haslyrics% -T “DISCNUMBER=%cdnumber%” -T “TOTALDISCS=%totalcds%” -T “TOTALTRACKS=%numtracks%” %hascover%–picture=”%coverfile%”%hascover% %source% -o %dest%

TOC of the extracted CD

Track | Start | Length | Start sector | End sector
———————————————————
1 | 0:00.00 | 3:50.30 | 0 | 17279
2 | 3:50.30 | 5:02.45 | 17280 | 39974
3 | 8:53.00 | 4:50.71 | 39975 | 61795
4 | 13:43.71 | 6:11.22 | 61796 | 89642
5 | 19:55.18 | 4:50.32 | 89643 | 111424
6 | 24:45.50 | 3:27.26 | 111425 | 126975
7 | 28:13.01 | 4:48.24 | 126976 | 148599
8 | 33:01.25 | 3:17.50 | 148600 | 163424
9 | 36:19.00 | 4:38.03 | 163425 | 184277
10 | 40:57.03 | 3:22.52 | 184278 | 199479
11 | 44:19.55 | 3:55.30 | 199480 | 217134

Range status and errors

Selected range

Filename C:\records\KREATOR 3 album collection\2003 Live Kreation\Kreator – Live Kreation – CD 2.wav

Peak level 100.0 %
Extraction speed 3.9 X
Range quality 100.0 %
Test CRC 1DF2DB40
Copy CRC 1DF2DB40
Copy OK

No errors occurred

AccurateRip summary

Track 1 accurately ripped (confidence 14) [21203D97] (AR v2)
Track 2 accurately ripped (confidence 14) [6C401418] (AR v2)
Track 3 accurately ripped (confidence 14) [5B187FA5] (AR v2)
Track 4 accurately ripped (confidence 14) [677E273A] (AR v2)
Track 5 accurately ripped (confidence 14) [92907C2F] (AR v2)
Track 6 accurately ripped (confidence 14) [D3093078] (AR v2)
Track 7 accurately ripped (confidence 14) [E8D370A6] (AR v2)
Track 8 accurately ripped (confidence 14) [CCE055D3] (AR v2)
Track 9 accurately ripped (confidence 14) [4343C2B6] (AR v2)
Track 10 accurately ripped (confidence 14) [A16E3D13] (AR v2)
Track 11 accurately ripped (confidence 14) [0A307C27] (AR v2)

All tracks accurately ripped

End of status report

==== Log checksum C3922FB6E885E6CC51D9ADF1A9178E9E143FD2BD6A31CADAA581D223CF02B704 ====

REM GENRE Thrash Metal
REM DATE 2003
REM DISCID BB0CE60D
REM COMMENT ExactAudioCopy v1.0b3
PERFORMER “”
TITLE “Live Kreation (CD-1) (SPV 089-74542 DCD)”
FILE “Kreator – Live Kreation (CD-1) (SPV 089-74542 DCD).flac” WAVE
TRACK 01 AUDIO
TITLE “The Patriarch”
PERFORMER “Kreator”
INDEX 01 00:00:00
TRACK 02 AUDIO
TITLE “Violent Revolution”
PERFORMER “Kreator”
INDEX 01 01:08:60
TRACK 03 AUDIO
TITLE “Reconquering The Throne”
PERFORMER “Kreator”
INDEX 01 06:15:09
TRACK 04 AUDIO
TITLE “Extreme Aggression”
PERFORMER “Kreator”
INDEX 01 11:06:07
TRACK 05 AUDIO
TITLE “People Of The Lie”
PERFORMER “Kreator”
INDEX 01 15:15:36
TRACK 06 AUDIO
TITLE “All Of The Same Blood”
PERFORMER “Kreator”
INDEX 01 18:32:30
TRACK 07 AUDIO
TITLE “Phobia”
PERFORMER “Kreator”
INDEX 01 24:25:69
TRACK 08 AUDIO
TITLE “Pleasure To Kill”
PERFORMER “Kreator”
INDEX 01 27:52:00
TRACK 09 AUDIO
TITLE “Renewal”
PERFORMER “Kreator”
INDEX 01 30:40:66
TRACK 10 AUDIO
TITLE “Servant In Heaven – King In Hell”
PERFORMER “Kreator”
INDEX 01 34:40:43
TRACK 11 AUDIO
TITLE “Black Sunrise”
PERFORMER “Kreator”
INDEX 01 39:48:66
TRACK 12 AUDIO
TITLE “Terrible Certainty”
PERFORMER “Kreator”
INDEX 01 44:30:39
TRACK 13 AUDIO
TITLE “Riot Of Violence”
PERFORMER “Kreator”
INDEX 01 49:15:61

REM GENRE Thrash Metal
REM DATE 2003
REM DISCID A40B4F0B
REM COMMENT ExactAudioCopy v1.0b3
PERFORMER “”
TITLE “Live Kreation (CD-2) (SPV 089-74542 DCD)”
FILE “Kreator – Live Kreation (CD-2) (SPV 089-74542 DCD).flac” WAVE
TRACK 01 AUDIO
TITLE “Lost”
PERFORMER “Kreator”
INDEX 01 00:00:00
TRACK 02 AUDIO
TITLE “Coma Of Souls”
PERFORMER “Kreator”
INDEX 01 03:50:30
TRACK 03 AUDIO
TITLE “Second Awakening”
PERFORMER “Kreator”
INDEX 01 08:53:00
TRACK 04 AUDIO
TITLE “Terrorzone”
PERFORMER “Kreator”
INDEX 01 13:43:71
TRACK 05 AUDIO
TITLE “Betrayer”
PERFORMER “Kreator”
INDEX 01 19:55:18
TRACK 06 AUDIO
TITLE “Leave This World Behind”
PERFORMER “Kreator”
INDEX 01 24:45:50
TRACK 07 AUDIO
TITLE “Under The Guillotine”
PERFORMER “Kreator”
INDEX 01 28:13:01
TRACK 08 AUDIO
TITLE “Awakening Of The Gods”
PERFORMER “Kreator”
INDEX 01 33:01:25
TRACK 09 AUDIO
TITLE “Golden Age”
PERFORMER “Kreator”
INDEX 01 36:19:00
TRACK 10 AUDIO
TITLE “Flag Of Hate”
PERFORMER “Kreator”
INDEX 01 40:57:03
TRACK 11 AUDIO
TITLE “Tormentor”
PERFORMER “Kreator”
INDEX 01 44:19:55


Spread the Download

Leave a Reply

Your email address will not be published. Required fields are marked *

Enter the text from the image below
 

This site uses Akismet to reduce spam. Learn how your comment data is processed.