Kreator – Hordes Of Chaos – Ultra Riot (Limited Edition)




Artist: Kreator
Year: 2009/2010
Genre: Metal
Notes: Discogs
Add. Notes: Limited Edition
Cover incl.: Yes
Encoder: FLAC
Bitrate: ~900 kBit/s (44.1 kHz/16 Bit/s)
Log & Cue incl.: Yes
Size: 897,2 MB
Password: “slam” (without ” “)


All Downloads/Hosters are compatible

Download 1
Turbobit.net
Rapidgator.net
KatFile.com
UploadRar.com
Download 2
Turbobit.net
Rapidgator.net
KatFile.com
UploadRar.com
Download 3
Turbobit.net
Rapidgator.net
KatFile.com
UploadRar.com

Tracklist:

1-1 - Hordes Of Chaos (A Necrologue For The Elite) - 
5:04
1-2 - Warcurse - 4:10
1-3 - Escalation - 3:24
1-4 - Amok Run - 4:12
1-5 - Destroy What Destroys You - 3:13
1-6 - Radical Resistance - 3:43
1-7 - Absolute Misanthropy - 3:37
1-8 - To The Afterborn - 4:53
1-9 - Corpses Of Liberty - 0:55
1-10 - Demon Prince - 5:16
Enhanced Videos
1-Video 1 - Hordes Of Chaos - 
1-Video 2 - Destroy What Destroys You - 
Bonus CD
2-1 - Hordes Of Chaos (Demo Version) - 5:13
2-2 - Radical Resistance (Demo Version) - 3:49
2-3 - To The Afterborn (Demo Version) - 5:57
2-4 - World Without Religion (Demo Version Of 
"Escalation" - Different Arrangement) - 3:49
2-5 - Amok Run (Demo Version) - 4:19
2-6 - Alle Gegen Alle (Demo Version - Slime Cover 
Featuring Nagel Und Thees Ulmann) - 2:48
2-7 - You Are The Government (Demo Version - Bad 
Religion Cover) - 1:11

EAC-Log, CUE-Sheed & NFO:

Click to open spoiler
Exact Audio Copy V1.1 from 23. June 2015

EAC extraction logfile from 13. August 2017, 20:43

Kreator / Hordes Of Chaos (SPV 91978 Box)

Used drive : ASUS DRW-24B1ST Adapter: 1 ID: 1

Read mode : Secure
Utilize accurate stream : Yes
Defeat audio cache : Yes
Make use of C2 pointers : No

Read offset correction : 6
Overread into Lead-In and Lead-Out : No
Fill up missing offset samples with silence : Yes
Delete leading and trailing silent blocks : No
Null samples used in CRC calculations : Yes
Used interface : Native Win32 interface for Win NT & 2000

Used output format : User Defined Encoder
Selected bitrate : 128 kBit/s
Quality : High
Add ID3 tag : No
Command line compressor : C:\Program Files (x86)\Exact Audio Copy\Flac\flac.exe
Additional command line options : -V -8 -T “Genre=%genre%” -T “Artist=%artist%” -T “Title=%title%” -T “Album=%albumtitle%” -T “Date=%year%” -T “Tracknumber=%tracknr%” -T “Comment=%comment%” %source%

TOC of the extracted CD

Track | Start | Length | Start sector | End sector
———————————————————
1 | 0:00.00 | 5:04.13 | 0 | 22812
2 | 5:04.13 | 4:10.28 | 22813 | 41590
3 | 9:14.41 | 3:24.31 | 41591 | 56921
4 | 12:38.72 | 4:12.69 | 56922 | 75890
5 | 16:51.66 | 3:13.01 | 75891 | 90366
6 | 20:04.67 | 3:43.27 | 90367 | 107118
7 | 23:48.19 | 3:37.08 | 107119 | 123401
8 | 27:25.27 | 4:53.03 | 123402 | 145379
9 | 32:18.30 | 0:55.41 | 145380 | 149545
10 | 33:13.71 | 5:16.59 | 149546 | 173304
11 | 41:02.55 | 18:21.66 | 184705 | 267345

Range status and errors

Selected range

Filename E:\Torrent\# MY\# Подготовка раздач\Kreator\2009 – Hordes Of Chaos\2010 – Hordes Of Chaos – Ultra Riot (Steamhammer, SPV 91978 Box, Germany)\CD-1 – Hordes Of Chaos\Kreator – Hordes Of Chaos (SPV 91978 Box).wav

Peak level 100.0 %
Extraction speed 5.0 X
Range quality 99.9 %
Test CRC FAC5B940
Copy CRC FAC5B940
Copy OK

No errors occurred

AccurateRip summary

Track 1 accurately ripped (confidence 12) [0DEFA72E] (AR v2)
Track 2 accurately ripped (confidence 11) [71B0DE3B] (AR v2)
Track 3 accurately ripped (confidence 12) [6B7259B6] (AR v2)
Track 4 accurately ripped (confidence 12) [FF7AA763] (AR v2)
Track 5 accurately ripped (confidence 12) [4E6A687D] (AR v2)
Track 6 accurately ripped (confidence 12) [DFEFA6D7] (AR v2)
Track 7 accurately ripped (confidence 12) [2EECF4F0] (AR v2)
Track 8 accurately ripped (confidence 12) [65940FEB] (AR v2)
Track 9 accurately ripped (confidence 12) [57D500BB] (AR v2)
Track 10 accurately ripped (confidence 12) [48872815] (AR v2)

All tracks accurately ripped

End of status report

—- CUETools DB Plugin V2.1.6

[CTDB TOCID: VyJvgd2akf_iCjVrUsr3q2XJDxY-] found
Submit result: VyJvgd2akf_iCjVrUsr3q2XJDxY- has been confirmed
Track | CTDB Status
1 | (209/210) Accurately ripped
2 | (208/210) Accurately ripped
3 | (208/210) Accurately ripped
4 | (209/210) Accurately ripped
5 | (209/210) Accurately ripped
6 | (209/210) Accurately ripped
7 | (208/210) Accurately ripped
8 | (209/210) Accurately ripped
9 | (209/210) Accurately ripped
10 | (208/210) Accurately ripped

==== Log checksum E01382DDA89821DE2298265AA22CEEA4D98C3B6585337052D7AB31E399065FC9 ====

Exact Audio Copy V1.1 from 23. June 2015

EAC extraction logfile from 13. August 2017, 21:04

Kreator / Hordes Of Chaos (Bonus CD) (SPV 91978 Box)

Used drive : ASUS DRW-24B1ST Adapter: 1 ID: 1

Read mode : Secure
Utilize accurate stream : Yes
Defeat audio cache : Yes
Make use of C2 pointers : No

Read offset correction : 6
Overread into Lead-In and Lead-Out : No
Fill up missing offset samples with silence : Yes
Delete leading and trailing silent blocks : No
Null samples used in CRC calculations : Yes
Used interface : Native Win32 interface for Win NT & 2000

Used output format : User Defined Encoder
Selected bitrate : 128 kBit/s
Quality : High
Add ID3 tag : No
Command line compressor : C:\Program Files (x86)\Exact Audio Copy\Flac\flac.exe
Additional command line options : -V -8 -T “Genre=%genre%” -T “Artist=%artist%” -T “Title=%title%” -T “Album=%albumtitle%” -T “Date=%year%” -T “Tracknumber=%tracknr%” -T “Comment=%comment%” %source%

TOC of the extracted CD

Track | Start | Length | Start sector | End sector
———————————————————
1 | 0:00.00 | 5:13.31 | 0 | 23505
2 | 5:13.31 | 3:49.35 | 23506 | 40715
3 | 9:02.66 | 5:57.24 | 40716 | 67514
4 | 15:00.15 | 3:49.42 | 67515 | 84731
5 | 18:49.57 | 4:19.69 | 84732 | 104225
6 | 23:09.51 | 2:48.56 | 104226 | 116881
7 | 25:58.32 | 1:11.22 | 116882 | 122228

Range status and errors

Selected range

Filename E:\Torrent\# MY\# Подготовка раздач\Kreator\2009 – Hordes Of Chaos\2010 – Hordes Of Chaos – Ultra Riot (Steamhammer, SPV 91978 Box, Germany)\CD-2 – Bonus CD\Kreator – Hordes Of Chaos (Bonus CD) (SPV 91978 Box).wav

Peak level 97.7 %
Extraction speed 2.6 X
Range quality 100.0 %
Test CRC AB19ED10
Copy CRC AB19ED10
Copy OK

No errors occurred

AccurateRip summary

Track 1 accurately ripped (confidence 10) [A172E2C4] (AR v2)
Track 2 accurately ripped (confidence 9) [106CD6E2] (AR v2)
Track 3 accurately ripped (confidence 10) [CCE75C6C] (AR v2)
Track 4 accurately ripped (confidence 10) [9CD0344C] (AR v2)
Track 5 accurately ripped (confidence 10) [FBC37535] (AR v2)
Track 6 accurately ripped (confidence 10) [E34DA3B8] (AR v2)
Track 7 accurately ripped (confidence 10) [5A88405B] (AR v2)

All tracks accurately ripped

End of status report

—- CUETools DB Plugin V2.1.6

[CTDB TOCID: sVoCmFhzffbJQPn7pDeCFzNsV1s-] found
Submit result: sVoCmFhzffbJQPn7pDeCFzNsV1s- has been confirmed
Track | CTDB Status
1 | (18/18) Accurately ripped
2 | (17/18) Accurately ripped
3 | (18/18) Accurately ripped
4 | (18/18) Accurately ripped
5 | (18/18) Accurately ripped
6 | (18/18) Accurately ripped
7 | (18/18) Accurately ripped

==== Log checksum F4BBC48843CAB97CB7C11C9C76604815BCD74EF55E9DC574877024C7D231767A ====

REM GENRE “Thrash Metal”
REM DATE 2010
REM DISCID 860DEC0B
REM COMMENT “ExactAudioCopy v1.1”
PERFORMER “Kreator”
TITLE “Hordes Of Chaos (SPV 91978 Box)”
FILE “Kreator – Hordes Of Chaos (SPV 91978 Box).flac” WAVE
TRACK 01 AUDIO
TITLE “Hordes Of Chaos (A Necrologue For The Elite)”
PERFORMER “Kreator”
ISRC DEA450831110
INDEX 01 00:00:00
TRACK 02 AUDIO
TITLE “War Curse”
PERFORMER “Kreator”
ISRC DEA450831120
INDEX 01 05:04:13
TRACK 03 AUDIO
TITLE “Escalation”
PERFORMER “Kreator”
ISRC DEA450831130
INDEX 01 09:14:41
TRACK 04 AUDIO
TITLE “Amok Run”
PERFORMER “Kreator”
ISRC DEA450831140
INDEX 01 12:38:72
TRACK 05 AUDIO
TITLE “Destroy What Destroys You”
PERFORMER “Kreator”
ISRC DEA450831150
INDEX 01 16:51:66
TRACK 06 AUDIO
TITLE “Radical Resistance”
PERFORMER “Kreator”
ISRC DEA450831160
INDEX 01 20:04:67
TRACK 07 AUDIO
TITLE “Absolute Misanthropy”
PERFORMER “Kreator”
ISRC DEA450831170
INDEX 01 23:48:19
TRACK 08 AUDIO
TITLE “To The Afterborn”
PERFORMER “Kreator”
ISRC DEA450831180
INDEX 01 27:25:27
TRACK 09 AUDIO
TITLE “Corpses Of Liberty ”
PERFORMER “Kreator”
ISRC DEA450831190
INDEX 01 32:18:30
TRACK 10 AUDIO
TITLE “Demon Prince”
PERFORMER “Kreator”
ISRC DEA450831200
INDEX 01 33:13:71

REM GENRE “Thrash Metal”
REM DATE 2010
REM DISCID 43065D07
REM COMMENT “ExactAudioCopy v1.1”
PERFORMER “Kreator”
TITLE “Hordes Of Chaos (Bonus CD) (SPV 91978 Box)”
FILE “Kreator – Hordes Of Chaos (Bonus CD) (SPV 91978 Box).flac” WAVE
TRACK 01 AUDIO
TITLE “Hordes Of Chaos (Demo version)”
PERFORMER “Kreator”
ISRC DEA451002070
INDEX 01 00:00:00
TRACK 02 AUDIO
TITLE “Radical Resistance (Demo version)”
PERFORMER “Kreator”
ISRC DEA451002080
INDEX 00 05:11:31
INDEX 01 05:13:31
TRACK 03 AUDIO
TITLE “To The Afterborn (Demo version)”
PERFORMER “Kreator”
ISRC DEA451002090
INDEX 00 09:00:66
INDEX 01 09:02:66
TRACK 04 AUDIO
TITLE “World Without Religion (Demo version of Escalation – Different arrangement)”
PERFORMER “Kreator”
ISRC DEA451002100
INDEX 00 14:58:15
INDEX 01 15:00:15
TRACK 05 AUDIO
TITLE “Amok Run (Demo version)”
PERFORMER “Kreator”
ISRC DEA451002110
INDEX 00 18:47:57
INDEX 01 18:49:57
TRACK 06 AUDIO
TITLE “Alle Gegen Alle (Demo version – Slime cover featuring Nagel und Thees Ulmann)”
PERFORMER “Kreator”
ISRC DEA451002120
INDEX 00 23:07:51
INDEX 01 23:09:51
TRACK 07 AUDIO
TITLE “You Are The Government (Demo version – Bad Religion cover)”
PERFORMER “Kreator”
ISRC DEA451002130
INDEX 00 25:56:32
INDEX 01 25:58:32


Leave a Reply

Your email address will not be published. Required fields are marked *

This site uses Akismet to reduce spam. Learn how your comment data is processed.