Kreator – Hordes Of Chaos (Japanese Edition)




Artist: Kreator
Year: 2009
Genre: Metal
Notes: Discogs
Add. Notes: Japanese Edition
Cover incl.: Yes
Encoder: FLAC
Bitrate: ~1100 kBit/s (44.1 kHz/16 Bit/s)
Log & Cue incl.: Yes
Size: 371,93 MB
Password: “slam” (without ” “)


All Downloads/Hosters are compatible

Download 1
Turbobit.net
Rapidgator.net
KatFile.com
UploadRar.com
Download 2
Turbobit.net
Rapidgator.net
KatFile.com
UploadRar.com
Download 3
Turbobit.net
Rapidgator.net
KatFile.com
UploadRar.com

Tracklist:

1 - Hordes Of Chaos (A Necrologue For The Elite) - 5:04
2 - Warcurse - 4:10
3 - Escalation - 3:24
4 - Amok Run - 4:12
5 - Destroy What Destroys You - 3:13
6 - Radical Resistance - 3:43
7 - Absolute Misanthropy - 3:37
8 - To The Afterborn - 4:53
9 - Corpses Of Liberty - 0:55
10 - Demon Prince - 5:16

EAC-Log, CUE-Sheed & NFO:

Click to open spoiler
Exact Audio Copy V0.99 prebeta 3 from 28. July 2007

Отчёт EAC об извлечении, выполненном 28. августа 2010, 8:57

Kreator / Hordes Of Chaos [KICP 1345]

Дисковод: TSSTcorpCDDVDW SH-S202H Adapter: 0 ID: 0

Режим чтения : Достоверность
Использование точного потока : Да
Отключение кэша аудио : Да
Использование указателей C2 : Нет

Коррекция смещения при чтении : 6
Способность читать области Lead-in и Lead-out : Нет
Заполнение пропущенных сэмплов тишиной : Да
Удаление блоков с тишиной в начале и конце : Нет
При вычислениях CRC использовались нулевые сэмплы : Да
Интерфейс : Установленный внешний ASPI-интерфейс

Выходной формат : Внутренние WAV-операции
Формат сэмплов : 44.100 Гц; 16 бит; стерео

TOC извлечённого CD

Трек | Старт | Длительность | Начальный сектор | Конечный сектор
———————————————————————
1 | 0:00.00 | 5:04.51 | 0 | 22850
2 | 5:04.51 | 4:10.29 | 22851 | 41629
3 | 9:15.05 | 3:24.29 | 41630 | 56958
4 | 12:39.34 | 4:12.67 | 56959 | 75925
5 | 16:52.26 | 3:13.06 | 75926 | 90406
6 | 20:05.32 | 3:43.32 | 90407 | 107163
7 | 23:48.64 | 3:36.74 | 107164 | 123437
8 | 27:25.63 | 4:53.07 | 123438 | 145419
9 | 32:18.70 | 0:55.46 | 145420 | 149590
10 | 33:14.41 | 5:17.32 | 149591 | 173397

Характеристики диапазона извлечения и сообщения об ошибках

Выбранный диапазон

Имя файла C:\Downloads\EAC\Kreator – Hordes Of Chaos [KICP 1345].wav

Пиковый уровень 100.0 %
Качество диапазона 100.0 %
CRC теста C75BCCE2
CRC копии C75BCCE2
Копирование… OK

Ошибок не произошло

AccurateRip: сводка

Трек 1 нет в базе данных
Трек 2 нет в базе данных
Трек 3 нет в базе данных
Трек 4 нет в базе данных
Трек 5 нет в базе данных
Трек 6 нет в базе данных
Трек 7 нет в базе данных
Трек 8 нет в базе данных
Трек 9 нет в базе данных
Трек 10 нет в базе данных

Ни одного трека нет в базе AccurateRip

Конец отчёта

REM GENRE “Thrash Metal”
REM DATE 2009
REM DISCID 7B09070A
REM COMMENT “ExactAudioCopy v0.99pb3”
PERFORMER “Kreator”
TITLE “Hordes Of Chaos (KICP 1345)”
FILE “Kreator – Hordes Of Chaos (KICP 1345).flac” WAVE
TRACK 01 AUDIO
TITLE “Hordes Of Chaos (A Necrologue For The Elite)”
PERFORMER “Kreator”
INDEX 01 00:00:00
TRACK 02 AUDIO
TITLE “War Curse”
PERFORMER “Kreator”
INDEX 01 05:04:51
TRACK 03 AUDIO
TITLE “Escalation”
PERFORMER “Kreator”
INDEX 01 09:15:05
TRACK 04 AUDIO
TITLE “Amok Run”
PERFORMER “Kreator”
INDEX 01 12:39:34
TRACK 05 AUDIO
TITLE “Destroy What Destroys You”
PERFORMER “Kreator”
INDEX 01 16:52:26
TRACK 06 AUDIO
TITLE “Radical Resistance”
PERFORMER “Kreator”
INDEX 01 20:05:32
TRACK 07 AUDIO
TITLE “Absolute Misanthropy”
PERFORMER “Kreator”
INDEX 01 23:48:64
TRACK 08 AUDIO
TITLE “To The Afterborn”
PERFORMER “Kreator”
INDEX 01 27:25:63
TRACK 09 AUDIO
TITLE “Corpses Of Liberty”
PERFORMER “Kreator”
INDEX 01 32:18:70
TRACK 10 AUDIO
TITLE “Demon Prince”
PERFORMER “Kreator”
INDEX 01 33:14:41


Leave a Reply

Your email address will not be published. Required fields are marked *

This site uses Akismet to reduce spam. Learn how your comment data is processed.