Kreator – Gods Of Violence (3 CD) (Limited Edition)




Artist: Kreator
Year: 2017
Genre: Rock
Notes: Discogs
Add. Notes: Limited Edition
Cover incl.: Yes
Encoder: FLAC
Bitrate: ~1000 kBit/s (44.1 kHz/16 Bit/s)
Log & Cue incl.: Yes
Size: 1281,7 MB
Password: “slam” (without ” “)


All Downloads/Hosters are compatible

Download 1
Turbobit.net
Rapidgator.net
KatFile.com
UploadRar.com
Download 2
Turbobit.net
Rapidgator.net
KatFile.com
UploadRar.com
Download 3
Turbobit.net
Rapidgator.net
KatFile.com
UploadRar.com

Tracklist:

Gods Of Violence
CD1-1. Apocalypticon 	1:06
CD1-2. World War Now 	4:28
CD1-3. Satan Is Real 	4:38
CD1-4. Totalitarian Terror 	4:45
CD1-5. Gods Of Violence 	5:51
CD1-6. Army Of Storms 	5:09
CD1-7. Hail To The Hordes 	4:02
CD1-8. Lion With Eagle Wings 	5:22
CD1-9. Fallen Brother 	4:37
CD1-10. Side By Side 	4:19
CD1-11. Death Becomes My Light 	7:26
Live At Wacken Open Air 2014
CD2-1. Mars Mantra 	1:19
CD2-2. Phantom Antichrist 	4:38
CD2-3. From Flood Into Fire 	6:33
CD2-4. Warcurse 	6:27
CD2-5. Endless Pain 	3:25
CD2-6. Pleasure To Kill 	4:12
CD2-7. Hordes Of Chaos 	5:42
CD2-8. Phobia 	5:15
CD2-9. Enemy Of God 	6:02
CD2-10. Civilization Collapse 	4:10
CD2-11. The Patriarch 	0:52
CD2-12. Violent Revolution 	6:54
CD2-13. United In Hate 	8:08
CD2-14. Flag Of Hate / Tormentor 	7:19
Alternative Version
CD3-1. World War Now 	4:19
CD3-2. Satan Is Real 	4:24
CD3-3. Gods Of Violence 	6:16
CD3-4. Lion With Eagle Wings 	5:56
CD3-5. Death Becomes My Light 	7:03

EAC-Log, CUE-Sheed & NFO:

Click to open spoiler
Exact Audio Copy V1.1 from 23. June 2015

EAC extraction logfile from 27. January 2017, 12:17

Kreator / Gods Of Violence

Used drive : HP DVD Writer 1170d Adapter: 1 ID: 1

Read mode : Secure
Utilize accurate stream : Yes
Defeat audio cache : Yes
Make use of C2 pointers : No

Read offset correction : 6
Overread into Lead-In and Lead-Out : No
Fill up missing offset samples with silence : Yes
Delete leading and trailing silent blocks : No
Null samples used in CRC calculations : Yes
Used interface : Native Win32 interface for Win NT & 2000

Used output format : User Defined Encoder
Selected bitrate : 1024 kBit/s
Quality : High
Add ID3 tag : No
Command line compressor : C:\Program Files (x86)\Exact Audio Copy\Flac\flac.exe
Additional command line options : -V -8 -T “Date=%year%” -T “Genre=%genre%” %source%

TOC of the extracted CD

Track | Start | Length | Start sector | End sector
———————————————————
1 | 0:00.00 | 1:06.63 | 0 | 5012
2 | 1:06.63 | 4:28.21 | 5013 | 25133
3 | 5:35.09 | 4:38.15 | 25134 | 45998
4 | 10:13.24 | 4:45.21 | 45999 | 67394
5 | 14:58.45 | 5:51.28 | 67395 | 93747
6 | 20:49.73 | 5:09.52 | 93748 | 116974
7 | 25:59.50 | 4:02.24 | 116975 | 135148
8 | 30:01.74 | 5:22.41 | 135149 | 159339
9 | 35:24.40 | 4:37.00 | 159340 | 180114
10 | 40:01.40 | 4:19.50 | 180115 | 199589
11 | 44:21.15 | 7:26.60 | 199590 | 233099

Range status and errors

Selected range

Filename C:\EAC\Ungern666\Kreator – Gods Of Violence.wav

Peak level 100.0 %
Extraction speed 6.9 X
Range quality 100.0 %
Test CRC E0D311C5
Copy CRC E0D311C5
Copy OK

No errors occurred

AccurateRip summary

Track 1 not present in database
Track 2 not present in database
Track 3 not present in database
Track 4 not present in database
Track 5 not present in database
Track 6 not present in database
Track 7 not present in database
Track 8 not present in database
Track 9 not present in database
Track 10 not present in database
Track 11 not present in database

None of the tracks are present in the AccurateRip database

End of status report

—- CUETools DB Plugin V2.1.6

[CTDB TOCID: PYWvW2B9xLopC7EfIWvWtGHuZ5Q-] found
Submit result: PYWvW2B9xLopC7EfIWvWtGHuZ5Q- has been confirmed
Track | CTDB Status
1 | (8/8) Accurately ripped
2 | (8/8) Accurately ripped
3 | (8/8) Accurately ripped
4 | (8/8) Accurately ripped
5 | (8/8) Accurately ripped
6 | (8/8) Accurately ripped
7 | (8/8) Accurately ripped
8 | (8/8) Accurately ripped
9 | (8/8) Accurately ripped
10 | (8/8) Accurately ripped
11 | (8/8) Accurately ripped

==== Log checksum 95ABE3FA68EBD685D449DCE02B304314F9DF3174B4C9322EC3FA98E6D24EBFF4 ====

Exact Audio Copy V1.1 from 23. June 2015

EAC extraction logfile from 27. January 2017, 13:53

Kreator / Live At Wacken 2014

Used drive : HP DVD Writer 1170d Adapter: 1 ID: 1

Read mode : Secure
Utilize accurate stream : Yes
Defeat audio cache : Yes
Make use of C2 pointers : No

Read offset correction : 6
Overread into Lead-In and Lead-Out : No
Fill up missing offset samples with silence : Yes
Delete leading and trailing silent blocks : No
Null samples used in CRC calculations : Yes
Used interface : Native Win32 interface for Win NT & 2000

Used output format : User Defined Encoder
Selected bitrate : 1024 kBit/s
Quality : High
Add ID3 tag : No
Command line compressor : C:\Program Files (x86)\Exact Audio Copy\Flac\flac.exe
Additional command line options : -V -8 -T “Date=%year%” -T “Genre=%genre%” %source%

TOC of the extracted CD

Track | Start | Length | Start sector | End sector
———————————————————
1 | 0:00.00 | 1:19.66 | 0 | 5990
2 | 1:19.66 | 4:38.27 | 5991 | 26867
3 | 5:58.18 | 6:33.24 | 26868 | 56366
4 | 12:31.42 | 6:27.35 | 56367 | 85426
5 | 18:59.02 | 3:25.28 | 85427 | 100829
6 | 22:24.30 | 4:12.59 | 100830 | 119788
7 | 26:37.14 | 5:42.30 | 119789 | 145468
8 | 32:19.44 | 5:15.59 | 145469 | 169152
9 | 37:35.28 | 6:02.15 | 169153 | 196317
10 | 43:37.43 | 4:10.53 | 196318 | 215120
11 | 47:48.21 | 0:52.25 | 215121 | 219045
12 | 48:40.46 | 6:54.31 | 219046 | 250126
13 | 55:35.02 | 8:08.12 | 250127 | 286738
14 | 63:43.14 | 7:19.63 | 286739 | 319726

Range status and errors

Selected range

Filename C:\EAC\Ungern666\Kreator – Live At Wacken 2014.wav

Peak level 98.6 %
Extraction speed 6.4 X
Range quality 100.0 %
Test CRC 601F4476
Copy CRC 601F4476
Copy OK

No errors occurred

AccurateRip summary

Track 1 not present in database
Track 2 not present in database
Track 3 not present in database
Track 4 not present in database
Track 5 not present in database
Track 6 not present in database
Track 7 not present in database
Track 8 not present in database
Track 9 not present in database
Track 10 not present in database
Track 11 not present in database
Track 12 not present in database
Track 13 not present in database
Track 14 not present in database

None of the tracks are present in the AccurateRip database

End of status report

—- CUETools DB Plugin V2.1.6

[CTDB TOCID: RcklruAvrlUlgpNlXHNs2dIvO0o-] disk not present in database
Submit result: RcklruAvrlUlgpNlXHNs2dIvO0o- has been uploaded

==== Log checksum DC35B71D632AC8D01BE1F080FDF8A6E27333C6D40E60C418EA4744081F2D2CBE ====

Exact Audio Copy V1.1 from 23. June 2015

EAC extraction logfile from 27. January 2017, 13:24

Kreator / Alternative Version

Used drive : HP DVD Writer 1170d Adapter: 1 ID: 1

Read mode : Secure
Utilize accurate stream : Yes
Defeat audio cache : Yes
Make use of C2 pointers : No

Read offset correction : 6
Overread into Lead-In and Lead-Out : No
Fill up missing offset samples with silence : Yes
Delete leading and trailing silent blocks : No
Null samples used in CRC calculations : Yes
Used interface : Native Win32 interface for Win NT & 2000

Used output format : User Defined Encoder
Selected bitrate : 1024 kBit/s
Quality : High
Add ID3 tag : No
Command line compressor : C:\Program Files (x86)\Exact Audio Copy\Flac\flac.exe
Additional command line options : -V -8 -T “Date=%year%” -T “Genre=%genre%” %source%

TOC of the extracted CD

Track | Start | Length | Start sector | End sector
———————————————————
1 | 0:00.00 | 4:19.51 | 0 | 19475
2 | 4:19.51 | 4:24.17 | 19476 | 39292
3 | 8:43.68 | 6:16.40 | 39293 | 67532
4 | 15:00.33 | 5:56.47 | 67533 | 94279
5 | 20:57.05 | 7:03.28 | 94280 | 126032

Range status and errors

Selected range

Filename C:\EAC\Ungern666\Kreator – Alternative Version.wav

Peak level 100.0 %
Extraction speed 4.8 X
Range quality 100.0 %
Test CRC 168B100F
Copy CRC 168B100F
Copy OK

No errors occurred

AccurateRip summary

Track 1 not present in database
Track 2 not present in database
Track 3 not present in database
Track 4 not present in database
Track 5 not present in database

None of the tracks are present in the AccurateRip database

End of status report

—- CUETools DB Plugin V2.1.6

[CTDB TOCID: Gri4Z4L_cUNUepTe98Kvd9rKo0I-] found
Submit result: Gri4Z4L_cUNUepTe98Kvd9rKo0I- has been confirmed
Track | CTDB Status
1 | (1/1) Accurately ripped
2 | (1/1) Accurately ripped
3 | (1/1) Accurately ripped
4 | (1/1) Accurately ripped
5 | (1/1) Accurately ripped

==== Log checksum 7CE4DEED19AB90AD2DCDADEA01D9CEA3FC12489968C7728254A41A43F2AEBB8E ====

REM DATE 2017
REM DISCID 790C240B
REM COMMENT “ExactAudioCopy v1.1”
PERFORMER “Kreator”
TITLE “Gods Of Violence (NB 3725-0-1)”
FILE “Kreator – Gods Of Violence (NB 3725-0-1).flac” WAVE
TRACK 01 AUDIO
TITLE “Apocalypticon”
PERFORMER “Kreator”
INDEX 01 00:00:00
TRACK 02 AUDIO
TITLE “World War Now”
PERFORMER “Kreator”
INDEX 01 01:06:63
TRACK 03 AUDIO
TITLE “Satan Is Real”
PERFORMER “Kreator”
INDEX 01 05:35:09
TRACK 04 AUDIO
TITLE “Totalitarian Terror”
PERFORMER “Kreator”
INDEX 01 10:13:24
TRACK 05 AUDIO
TITLE “Gods Of Violence”
PERFORMER “Kreator”
INDEX 01 14:58:45
TRACK 06 AUDIO
TITLE “Army Of Storms”
PERFORMER “Kreator”
INDEX 01 20:49:73
TRACK 07 AUDIO
TITLE “Hail To The Hordes”
PERFORMER “Kreator”
INDEX 01 25:59:50
TRACK 08 AUDIO
TITLE “Lion With Eagle Wings”
PERFORMER “Kreator”
INDEX 01 30:01:74
TRACK 09 AUDIO
TITLE “Fallen Brother”
PERFORMER “Kreator”
INDEX 01 35:24:40
TRACK 10 AUDIO
TITLE “Side By Side”
PERFORMER “Kreator”
INDEX 01 40:01:40
TRACK 11 AUDIO
TITLE “Death Becomes My Light”
PERFORMER “Kreator”
INDEX 01 44:21:15

REM DATE 2017
REM DISCID C310A70E
REM COMMENT “ExactAudioCopy v1.1”
PERFORMER “Kreator”
TITLE “Live At Wacken 2014 (NB 3725-4-4)”
FILE “Kreator – Live At Wacken 2014 (NB 3725-4-4).flac” WAVE
TRACK 01 AUDIO
TITLE “Mars Mantra”
PERFORMER “Kreator”
INDEX 01 00:00:00
TRACK 02 AUDIO
TITLE “Phantom Antichrist”
PERFORMER “Kreator”
INDEX 01 01:19:66
TRACK 03 AUDIO
TITLE “From Flood Into Fire”
PERFORMER “Kreator”
INDEX 01 05:58:18
TRACK 04 AUDIO
TITLE “Warcurse”
PERFORMER “Kreator”
INDEX 01 12:31:42
TRACK 05 AUDIO
TITLE “Endless Pain”
PERFORMER “Kreator”
INDEX 01 18:59:02
TRACK 06 AUDIO
TITLE “Pleasure To Kill”
PERFORMER “Kreator”
INDEX 01 22:24:30
TRACK 07 AUDIO
TITLE “Hordes Of Chaos”
PERFORMER “Kreator”
INDEX 01 26:37:14
TRACK 08 AUDIO
TITLE “Phobia”
PERFORMER “Kreator”
INDEX 01 32:19:44
TRACK 09 AUDIO
TITLE “Enemy Of God”
PERFORMER “Kreator”
INDEX 01 37:35:28
TRACK 10 AUDIO
TITLE “Civilisation Collapse”
PERFORMER “Kreator”
INDEX 01 43:37:43
TRACK 11 AUDIO
TITLE “The Patriarch”
PERFORMER “Kreator”
INDEX 01 47:48:21
TRACK 12 AUDIO
TITLE “Violent Revolution”
PERFORMER “Kreator”
INDEX 01 48:40:46
TRACK 13 AUDIO
TITLE “United In Hate”
PERFORMER “Kreator”
INDEX 01 55:35:02
TRACK 14 AUDIO
TITLE “Flag Of Hate / Tormentor”
PERFORMER “Kreator”
INDEX 01 63:43:14

REM DATE 2017
REM DISCID 33069005
REM COMMENT “ExactAudioCopy v1.1”
PERFORMER “Kreator”
TITLE “Alternative Version (NB 3725-5-7)”
FILE “Kreator – Alternative Version (NB 3725-5-7).flac” WAVE
TRACK 01 AUDIO
TITLE “World War Now”
PERFORMER “Kreator”
INDEX 01 00:00:00
TRACK 02 AUDIO
TITLE “Satan Is Real”
PERFORMER “Kreator”
INDEX 01 04:19:51
TRACK 03 AUDIO
TITLE “Gods Of Violence”
PERFORMER “Kreator”
INDEX 01 08:43:68
TRACK 04 AUDIO
TITLE “Lion With Eagle Wings”
PERFORMER “Kreator”
INDEX 01 15:00:33
TRACK 05 AUDIO
TITLE “Death Becomes My Life”
PERFORMER “Kreator”
INDEX 01 20:57:05


Leave a Reply

Your email address will not be published. Required fields are marked *

This site uses Akismet to reduce spam. Learn how your comment data is processed.