Kreator – Extreme Aggression




Artist: Kreator
Year: 1989
Genre: Metal
Notes: Discogs
Add. Notes:
Cover incl.: Yes
Encoder: FLAC
Bitrate: ~1000 kBit/s (44.1 kHz/16 Bit/s)
Log & Cue incl.: Yes
Size: 287,25 MB
Password: “slam” (without ” “)


All Downloads/Hosters are compatible

Download 1
Turbobit.net
Rapidgator.net
KatFile.com
UploadRar.com
Download 2
Turbobit.net
Rapidgator.net
KatFile.com
UploadRar.com
Download 3
Turbobit.net
Rapidgator.net
KatFile.com
UploadRar.com

Tracklist:

1 - Extreme Aggression - 4:43
2 - No Reason To Exist - 4:34
3 - Love Us Or Hate Us - 3:40
4 - Stream Of Consciousness - 3:51
5 - Some Pain Will Last - 5:35
6 - Betrayer - 3:58
7 - Don't Trust - 3:43
8 - Bringer Of Torture - 2:15
9 - Fatal Energy - 4:54

EAC-Log, CUE-Sheed & NFO:

Click to open spoiler
Exact Audio Copy V1.0 beta 3 from 29. August 2011

EAC extraction logfile from 23. August 2013, 8:12

Kreator / Extreme Aggression [Noise, N 0129-2, W.Germany]

Used drive : PIONEER DVD-RW DVR-112D Adapter: 0 ID: 0

Read mode : Secure
Utilize accurate stream : Yes
Defeat audio cache : Yes
Make use of C2 pointers : No

Read offset correction : 48
Overread into Lead-In and Lead-Out : No
Fill up missing offset samples with silence : Yes
Delete leading and trailing silent blocks : No
Null samples used in CRC calculations : Yes
Used interface : Installed external ASPI interface

Used output format : User Defined Encoder
Selected bitrate : 1024 kBit/s
Quality : High
Add ID3 tag : No
Command line compressor : C:\Program Files\Exact Audio Copy\FLAC\FLAC.EXE
Additional command line options : -V -8 -T “Date=%year%” -T “Genre=%genre%” %source%

TOC of the extracted CD

Track | Start | Length | Start sector | End sector
———————————————————
1 | 0:00.00 | 4:44.02 | 0 | 21301
2 | 4:44.02 | 4:37.05 | 21302 | 42081
3 | 9:21.07 | 3:42.38 | 42082 | 58769
4 | 13:03.45 | 3:53.15 | 58770 | 76259
5 | 16:56.60 | 5:39.27 | 76260 | 101711
6 | 22:36.12 | 3:59.28 | 101712 | 119664
7 | 26:35.40 | 3:43.05 | 119665 | 136394
8 | 30:18.45 | 2:15.47 | 136395 | 146566
9 | 32:34.17 | 4:57.58 | 146567 | 168899

Range status and errors

Selected range

Filename C:\CDRip by Deminbek\Kreator – Extreme Aggression [Noise, N 0129-2, W.Germany].wav

Peak level 100.0 %
Extraction speed 6.5 X
Range quality 100.0 %
Test CRC B2C23C73
Copy CRC B2C23C73
Copy OK

No errors occurred

AccurateRip summary

Track 1 accurately ripped (confidence 7) [ACC2491F] (AR v2)
Track 2 accurately ripped (confidence 7) [191A116F] (AR v2)
Track 3 accurately ripped (confidence 7) [110D1FA7] (AR v2)
Track 4 accurately ripped (confidence 7) [501DF853] (AR v2)
Track 5 accurately ripped (confidence 7) [A960F3E9] (AR v2)
Track 6 accurately ripped (confidence 7) [033351DF] (AR v2)
Track 7 accurately ripped (confidence 7) [275DAE5C] (AR v2)
Track 8 accurately ripped (confidence 7) [30D984D4] (AR v2)
Track 9 accurately ripped (confidence 7) [18879890] (AR v2)

All tracks accurately ripped

End of status report

—- CUETools DB Plugin V2.1.3

[CTDB TOCID: b1xMf01oivNXwBsIY63P.sj4UG4-] found, Submit result: already submitted
[7beafb19] (86/87) Accurately ripped
[5d311330] (01/87) No match

==== Log checksum 9DAEDCE9B18AF61CE4D8F02202E504600B045BB2AF1CDB6090A0737798C92F75 ====

REM GENRE “Thrash Metal”
REM DATE 1989
REM DISCID 8508CC09
REM COMMENT “ExactAudioCopy v1.0b3”
PERFORMER “Kreator”
TITLE “Extreme Aggression (N 0129-2, Germany)”
FILE “Kreator – Extreme Aggression (N 0129-2).flac” WAVE
TRACK 01 AUDIO
TITLE “Extreme Aggressions”
PERFORMER “Kreator”
INDEX 01 00:00:00
TRACK 02 AUDIO
TITLE “No Reason To Exist”
PERFORMER “Kreator”
INDEX 00 04:43:35
INDEX 01 04:44:02
TRACK 03 AUDIO
TITLE “Love Us Or Hate Us”
PERFORMER “Kreator”
INDEX 00 09:20:52
INDEX 01 09:21:07
TRACK 04 AUDIO
TITLE “Stream Of Consciousness”
PERFORMER “Kreator”
INDEX 00 13:03:32
INDEX 01 13:03:45
TRACK 05 AUDIO
TITLE “Some Pain Will Last”
PERFORMER “Kreator”
INDEX 00 16:56:07
INDEX 01 16:56:60
TRACK 06 AUDIO
TITLE “Betrayer”
PERFORMER “Kreator”
INDEX 00 22:35:67
INDEX 01 22:36:12
TRACK 07 AUDIO
TITLE “Don’t Trust”
PERFORMER “Kreator”
INDEX 00 26:35:27
INDEX 01 26:35:40
TRACK 08 AUDIO
TITLE “Bringer Of Torture”
PERFORMER “Kreator”
INDEX 00 30:18:35
INDEX 01 30:18:45
TRACK 09 AUDIO
TITLE “Fatal Energy”
PERFORMER “Kreator”
INDEX 00 32:34:00
INDEX 01 32:34:17


Leave a Reply

Your email address will not be published. Required fields are marked *

This site uses Akismet to reduce spam. Learn how your comment data is processed.