Kreator – Extreme Aggression (Japanese Edition)




Artist: Kreator
Year: 1989
Genre: Metal
Notes: Discogs
Add. Notes: Japanese Edition
Cover incl.: Yes
Encoder: FLAC
Bitrate: ~1000 kBit/s (44.1 kHz/16 Bit/s)
Log & Cue incl.: Yes
Size: 301,96 MB
Password: “slam” (without ” “)


All Downloads/Hosters are compatible

Download 1
Turbobit.net
NitroFlare.com
KatFile.com
Rapidgator.net
Download 2
Turbobit.net
NitroFlare.com
KatFile.com
Rapidgator.net

Tracklist:

1 - Extreme Aggressions - 4:43
2 - No Reason To Exist - 4:37
3 - Love Us Or Hate Us - 3:42
4 - Stream Of Consciousness - 3:53
5 - Some Pain Will Last - 5:39
6 - Betrayer - 3:59
7 - Dont Trust - 3:43
8 - Bringer Of Torture - 2:15
9 - Fatal Energy - 4:58

EAC-Log, CUE-Sheed & NFO:

Click to open spoiler
Exact Audio Copy V1.0 beta 3 from 29. August 2011

EAC extraction logfile from 5. May 2014, 17:27

Kreator / Extreme Aggression [Epic-Sony, ESCA 5023, Japan]

Used drive : PIONEER DVD-RW DVR-112D Adapter: 1 ID: 0

Read mode : Secure
Utilize accurate stream : Yes
Defeat audio cache : Yes
Make use of C2 pointers : No

Read offset correction : 48
Overread into Lead-In and Lead-Out : No
Fill up missing offset samples with silence : Yes
Delete leading and trailing silent blocks : No
Null samples used in CRC calculations : Yes
Used interface : Installed external ASPI interface

Used output format : User Defined Encoder
Selected bitrate : 1024 kBit/s
Quality : High
Add ID3 tag : No
Command line compressor : C:\Program Files\Exact Audio Copy\FLAC\FLAC.EXE
Additional command line options : -V -8 -T “Date=%year%” -T “Genre=%genre%” %source%

TOC of the extracted CD

Track | Start | Length | Start sector | End sector
———————————————————
1 | 0:00.00 | 4:43.67 | 0 | 21291
2 | 4:43.67 | 4:37.00 | 21292 | 42066
3 | 9:20.67 | 3:42.45 | 42067 | 58761
4 | 13:03.37 | 3:53.10 | 58762 | 76246
5 | 16:56.47 | 5:39.30 | 76247 | 101701
6 | 22:36.02 | 3:59.25 | 101702 | 119651
7 | 26:35.27 | 3:43.05 | 119652 | 136381
8 | 30:18.32 | 2:15.48 | 136382 | 146554
9 | 32:34.05 | 4:58.12 | 146555 | 168916

Range status and errors

Selected range

Filename C:\CDRip by Deminbek\Kreator – Extreme Aggression [Epic-Sony, ESCA 5023, Japan].wav

Peak level 100.0 %
Extraction speed 2.3 X
Range quality 100.0 %
Test CRC 82F3492E
Copy CRC 82F3492E
Copy OK

No errors occurred

AccurateRip summary

Track 1 accurately ripped (confidence 1) [27B06DEF] (AR v2)
Track 2 accurately ripped (confidence 1) [0A617951] (AR v2)
Track 3 accurately ripped (confidence 1) [A849A149] (AR v2)
Track 4 accurately ripped (confidence 1) [7BBDF4D9] (AR v2)
Track 5 accurately ripped (confidence 1) [CFFF2905] (AR v2)
Track 6 accurately ripped (confidence 1) [B5A22258] (AR v2)
Track 7 accurately ripped (confidence 1) [5F60E8EF] (AR v2)
Track 8 accurately ripped (confidence 1) [C4562DA2] (AR v2)
Track 9 accurately ripped (confidence 1) [4DD26551] (AR v2)

All tracks accurately ripped

End of status report

—- CUETools DB Plugin V2.1.4

[CTDB TOCID: XxHhXU5bd3ao5ySUWyB9Ey5MIUg-] found
Submit result: XxHhXU5bd3ao5ySUWyB9Ey5MIUg- has been confirmed
Track | CTDB Status
1 | (1/1) Accurately ripped
2 | (1/1) Accurately ripped
3 | (1/1) Accurately ripped
4 | (1/1) Accurately ripped
5 | (1/1) Accurately ripped
6 | (1/1) Accurately ripped
7 | (1/1) Accurately ripped
8 | (1/1) Accurately ripped
9 | (1/1) Accurately ripped

==== Log checksum 35E1920DE85F67326E2EAFEA6D2092C283E85B92553DD8155E09CE4507A39D40 ====

REM GENRE “Thrash Metal”
REM DATE 1989
REM DISCID 8308CC09
REM COMMENT “ExactAudioCopy v1.0b3”
PERFORMER “Kreator”
TITLE “Extreme Aggression (ESCA 5023)”
FILE “Kreator – Extreme Aggression (ESCA 5023).flac” WAVE
TRACK 01 AUDIO
TITLE “Extreme Aggressions”
PERFORMER “Kreator”
INDEX 01 00:00:00
TRACK 02 AUDIO
TITLE “No Reason To Exist”
PERFORMER “Kreator”
INDEX 01 04:43:67
TRACK 03 AUDIO
TITLE “Love Us Or Hate Us”
PERFORMER “Kreator”
INDEX 01 09:20:67
TRACK 04 AUDIO
TITLE “Stream Of Consciousness”
PERFORMER “Kreator”
INDEX 01 13:03:37
TRACK 05 AUDIO
TITLE “Some Pain Will Last”
PERFORMER “Kreator”
INDEX 01 16:56:47
TRACK 06 AUDIO
TITLE “Betrayer”
PERFORMER “Kreator”
INDEX 01 22:36:02
TRACK 07 AUDIO
TITLE “Don’t Trust”
PERFORMER “Kreator”
INDEX 01 26:35:27
TRACK 08 AUDIO
TITLE “Bringer Of Torture”
PERFORMER “Kreator”
INDEX 01 30:18:32
TRACK 09 AUDIO
TITLE “Fatal Energy”
PERFORMER “Kreator”
INDEX 01 32:34:05


Leave a Reply

Your email address will not be published. Required fields are marked *

Enter the text from the image below
 

This site uses Akismet to reduce spam. Learn how your comment data is processed.