Kreator – Enemy Of God Revisited




Artist: Kreator
Year: 2006
Genre: Metal
Notes: Discogs
Add. Notes:
Cover incl.: Yes
Encoder: FLAC
Bitrate: ~1000 kBit/s (44.1 kHz/16 Bit/s)
Log & Cue incl.: Yes
Size: 547,78 MB
Password: “slam” (without ” “)


All Downloads/Hosters are compatible

Download 1
Turbobit.net
Rapidgator.net
KatFile.com
UploadRar.com
Download 2
Turbobit.net
Rapidgator.net
KatFile.com
UploadRar.com
Download 3
Turbobit.net
Rapidgator.net
KatFile.com
UploadRar.com

Tracklist:

1 - Enemy Of God - 5:44
2 - Impossible Brutality - 4:31
3 - Suicide Terrorist - 3:29
4 - World Anarchy - 3:55
5 - Dystopia - 3:41
6 - Voices Of The Dead - 4:33
7 - Murder Fantasies - 4:50
8 - When Death Takes Its Dominion - 5:39
9 - One Evil Comes - A Million Follow - 3:20
10 - Dying Race Apocalypse - 4:41
11 - Under A Total Blackened Sky - 4:29
12 - The Ancient Plague - 6:59
13 - Toxic Trace - 4:07
14 - Coma Of Souls - 4:50

EAC-Log, CUE-Sheed & NFO:

Click to open spoiler
Exact Audio Copy V1.1 from 23. June 2015

EAC extraction logfile from 13. August 2017, 18:23

Kreator / Enemy Of God Revisited (SPV 69848 CD)

Used drive : ASUS DRW-24B1ST Adapter: 1 ID: 1

Read mode : Secure
Utilize accurate stream : Yes
Defeat audio cache : Yes
Make use of C2 pointers : No

Read offset correction : 6
Overread into Lead-In and Lead-Out : No
Fill up missing offset samples with silence : Yes
Delete leading and trailing silent blocks : No
Null samples used in CRC calculations : Yes
Used interface : Native Win32 interface for Win NT & 2000

Used output format : User Defined Encoder
Selected bitrate : 128 kBit/s
Quality : High
Add ID3 tag : No
Command line compressor : C:\Program Files (x86)\Exact Audio Copy\Flac\flac.exe
Additional command line options : -V -8 -T “Genre=%genre%” -T “Artist=%artist%” -T “Title=%title%” -T “Album=%albumtitle%” -T “Date=%year%” -T “Tracknumber=%tracknr%” -T “Comment=%comment%” %source%

TOC of the extracted CD

Track | Start | Length | Start sector | End sector
———————————————————
1 | 0:00.00 | 5:43.69 | 0 | 25793
2 | 5:43.69 | 4:30.48 | 25794 | 46091
3 | 10:14.42 | 3:28.39 | 46092 | 61730
4 | 13:43.06 | 3:55.28 | 61731 | 79383
5 | 17:38.34 | 3:41.02 | 79384 | 95960
6 | 21:19.36 | 4:33.07 | 95961 | 116442
7 | 25:52.43 | 4:50.12 | 116443 | 138204
8 | 30:42.55 | 5:38.67 | 138205 | 163621
9 | 36:21.47 | 3:19.68 | 163622 | 178614
10 | 39:41.40 | 4:40.56 | 178615 | 199670
11 | 44:22.21 | 4:28.43 | 199671 | 219813
12 | 48:50.64 | 6:58.64 | 219814 | 251227
13 | 55:49.53 | 4:07.12 | 251228 | 269764
14 | 59:56.65 | 4:50.00 | 269765 | 291514

Range status and errors

Selected range

Filename E:\Torrent\Ginger Devil for rutracker.org\Kreator – Enemy Of God Revisited (Steamhammer, SPV 69848 CD+DVD, Germany)\Kreator – Enemy Of God Revisited (SPV 69848 CD).wav

Peak level 99.8 %
Extraction speed 6.2 X
Range quality 100.0 %
Test CRC 73026698
Copy CRC 73026698
Copy OK

No errors occurred

AccurateRip summary

Track 1 accurately ripped (confidence 12) [50F4E420] (AR v2)
Track 2 accurately ripped (confidence 12) [5815AA1C] (AR v2)
Track 3 accurately ripped (confidence 12) [1ED5A2F8] (AR v2)
Track 4 accurately ripped (confidence 12) [E9B22CDE] (AR v2)
Track 5 accurately ripped (confidence 12) [6EC4D900] (AR v2)
Track 6 accurately ripped (confidence 12) [26632E7C] (AR v2)
Track 7 accurately ripped (confidence 12) [04D39143] (AR v2)
Track 8 accurately ripped (confidence 12) [6CF92D4E] (AR v2)
Track 9 accurately ripped (confidence 12) [2864CC85] (AR v2)
Track 10 accurately ripped (confidence 12) [4E565F2E] (AR v2)
Track 11 accurately ripped (confidence 12) [9EBC7A21] (AR v2)
Track 12 accurately ripped (confidence 12) [A2935528] (AR v2)
Track 13 accurately ripped (confidence 13) [64C573EA] (AR v2)
Track 14 accurately ripped (confidence 13) [6630574A] (AR v2)

All tracks accurately ripped

End of status report

—- CUETools DB Plugin V2.1.6

[CTDB TOCID: OmEjx0Gf5AA84qfp7ibFIeLdaEY-] found
Submit result: already submitted
Track | CTDB Status
1 | (24/24) Accurately ripped
2 | (24/24) Accurately ripped
3 | (24/24) Accurately ripped
4 | (24/24) Accurately ripped
5 | (24/24) Accurately ripped
6 | (24/24) Accurately ripped
7 | (24/24) Accurately ripped
8 | (24/24) Accurately ripped
9 | (24/24) Accurately ripped
10 | (24/24) Accurately ripped
11 | (24/24) Accurately ripped
12 | (24/24) Accurately ripped
13 | (24/24) Accurately ripped
14 | (24/24) Accurately ripped

==== Log checksum 5BE2F85216CB5560AF5CF18C95D8135FEB8CB8887F2C52A3E5E17136C4C37BD8 ====

REM GENRE “Thrash Metal”
REM DATE 2006
REM DISCID C20F2E0E
REM COMMENT “ExactAudioCopy v1.1”
CATALOG 4988007210669
PERFORMER “Kreator”
TITLE “Enemy Of God Revisited (SPV 69848 CD)”
FILE “Kreator – Enemy Of God Revisited (SPV 69848 CD).flac” WAVE
TRACK 01 AUDIO
TITLE “Enemy Of God”
PERFORMER “Kreator”
ISRC DEA450404300
INDEX 01 00:00:00
TRACK 02 AUDIO
TITLE “Impossible Brutality”
PERFORMER “Kreator”
ISRC DEA450404310
INDEX 01 05:43:69
TRACK 03 AUDIO
TITLE “Suicide Terrorist”
PERFORMER “Kreator”
ISRC DEA450404320
INDEX 01 10:14:42
TRACK 04 AUDIO
TITLE “World Anarchy”
PERFORMER “Kreator”
ISRC DEA450404330
INDEX 01 13:43:06
TRACK 05 AUDIO
TITLE “Dystopia”
PERFORMER “Kreator”
ISRC DEA450404340
INDEX 01 17:38:34
TRACK 06 AUDIO
TITLE “Voices Of The Dead”
PERFORMER “Kreator”
ISRC DEA450404350
INDEX 00 21:16:00
INDEX 01 21:19:36
TRACK 07 AUDIO
TITLE “Murder Fantasies”
PERFORMER “Kreator”
ISRC DEA450404360
INDEX 01 25:52:43
TRACK 08 AUDIO
TITLE “When Death Takes It’s Dominion”
PERFORMER “Kreator”
ISRC DEA450404370
INDEX 01 30:42:55
TRACK 09 AUDIO
TITLE “One Evil Comes – A Million Follow”
PERFORMER “Kreator”
ISRC DEA450404380
INDEX 01 36:21:47
TRACK 10 AUDIO
TITLE “Dying Race Apocalypse”
PERFORMER “Kreator”
ISRC DEA450404390
INDEX 00 39:37:50
INDEX 01 39:41:40
TRACK 11 AUDIO
TITLE “Under A Total Blackened Sky”
PERFORMER “Kreator”
ISRC DEA450404400
INDEX 01 44:22:21
TRACK 12 AUDIO
TITLE “The Ancient Plague”
PERFORMER “Kreator”
ISRC DEA450404400
INDEX 01 48:50:64
TRACK 13 AUDIO
TITLE “Toxic Trace (Live) (Bonus track)”
PERFORMER “Kreator”
ISRC DEA450614270
INDEX 00 55:46:53
INDEX 01 55:49:53
TRACK 14 AUDIO
TITLE “Coma Of Souls (Live) (Bonus track)”
PERFORMER “Kreator”
ISRC DEA450614270
INDEX 01 59:56:65


Leave a Reply

Your email address will not be published. Required fields are marked *

This site uses Akismet to reduce spam. Learn how your comment data is processed.