Kreator – Endorama




Artist: Kreator
Year: 1990
Genre: Metal
Notes: Discogs
Add. Notes:
Cover incl.: Yes
Encoder: FLAC
Bitrate: ~900 kBit/s (44.1 kHz/16 Bit/s)
Log & Cue incl.: Yes
Size: 416 MB
Password: “slam” (without ” “)


All Downloads/Hosters are compatible

Download 1
Turbobit.net
Rapidgator.net
UploadEver.com
KatFile.com
UsersDrive.com
Download 2
Turbobit.net
Rapidgator.net
UploadEver.com
KatFile.com
UsersDrive.com
Download 3
Turbobit.net
Rapidgator.net
UploadEver.com
KatFile.com
UsersDrive.com

Tracklist:

1 - Golden Age - 4:52
2 - Endorama - 3:20
3 - Shadowland - 4:27
4 - Chosen Few - 4:30
5 - Everlasting Flame - 5:23
6 - Passage To Babylon - 4:24
7 - Future King - 4:44
8 - Entry - 1:05
9 - Soul Eraser - 4:30
10 - Willing Spirit - 4:36
11 - Pandemonium - 4:10
12 - Tyranny - 3:59

EAC-Log, CUE-Sheed & NFO:

Click to open spoiler
Exact Audio Copy V1.0 beta 3 from 29. August 2011

EAC extraction logfile from 12. January 2013, 0:12

Kreator / Endorama

Used drive : HL-DT-STDVDRAM GH24NS90 Adapter: 1 ID: 1

Read mode : Secure
Utilize accurate stream : Yes
Defeat audio cache : Yes
Make use of C2 pointers : No

Read offset correction : 6
Overread into Lead-In and Lead-Out : No
Fill up missing offset samples with silence : Yes
Delete leading and trailing silent blocks : No
Null samples used in CRC calculations : Yes
Used interface : Native Win32 interface for Win NT & 2000

Used output format : Internal WAV Routines
Sample format : 44.100 Hz; 16 Bit; Stereo

TOC of the extracted CD

Track | Start | Length | Start sector | End sector
———————————————————
1 | 0:00.00 | 4:51.10 | 0 | 21834
2 | 4:51.10 | 3:20.55 | 21835 | 36889
3 | 8:11.65 | 4:27.57 | 36890 | 56971
4 | 12:39.47 | 4:30.35 | 56972 | 77256
5 | 17:10.07 | 5:23.28 | 77257 | 101509
6 | 22:33.35 | 4:24.65 | 101510 | 121374
7 | 26:58.25 | 4:44.15 | 121375 | 142689
8 | 31:42.40 | 1:05.12 | 142690 | 147576
9 | 32:47.52 | 4:30.05 | 147577 | 167831
10 | 37:17.57 | 4:36.35 | 167832 | 188566
11 | 41:54.17 | 4:10.60 | 188567 | 207376
12 | 46:05.02 | 4:01.73 | 207377 | 225524

Range status and errors

Selected range

Filename C:\Music CD\Kreator – Endorama.wav

Peak level 99.9 %
Extraction speed 1.7 X
Range quality 100.0 %
Test CRC A4F06A2A
Copy CRC A4F06A2A
Copy OK

No errors occurred

AccurateRip summary

Track 1 accurately ripped (confidence 2) [563EA91F] (AR v1)
Track 2 accurately ripped (confidence 2) [E497D73B] (AR v1)
Track 3 accurately ripped (confidence 2) [FA27B524] (AR v1)
Track 4 accurately ripped (confidence 2) [411AA128] (AR v1)
Track 5 accurately ripped (confidence 2) [C4FD73A9] (AR v1)
Track 6 accurately ripped (confidence 2) [4A8C1F15] (AR v1)
Track 7 accurately ripped (confidence 2) [4870BBB6] (AR v1)
Track 8 accurately ripped (confidence 2) [21D9E590] (AR v1)
Track 9 accurately ripped (confidence 2) [D5030C2A] (AR v1)
Track 10 accurately ripped (confidence 2) [0FC102EE] (AR v1)
Track 11 accurately ripped (confidence 2) [6D9A55DB] (AR v1)
Track 12 accurately ripped (confidence 2) [9CD09598] (AR v1)

All tracks accurately ripped

End of status report

==== Log checksum FCFF766CD2D03DB43B8104944C7411AF5A1B456F0A3EDC28D9F8C8E7C09A67C9 ====

REM GENRE Metal
REM DATE 1999
REM DISCID A60BBF0C
CATALOG 769623233128
PERFORMER “Kreator”
TITLE “Endorama (76962-32331-2)”
FILE “Kreator – Endorama (76962-32331-2).flac” WAVE
TRACK 01 AUDIO
TITLE “Golden Age”
PERFORMER “Kreator”
INDEX 01 00:00:00
TRACK 02 AUDIO
TITLE “Endorama”
PERFORMER “Kreator”
INDEX 01 04:51:10
TRACK 03 AUDIO
TITLE “Shadowland”
PERFORMER “Kreator”
INDEX 01 08:11:65
TRACK 04 AUDIO
TITLE “Chosen Few”
PERFORMER “Kreator”
INDEX 01 12:39:47
TRACK 05 AUDIO
TITLE “Everlasting Flame”
PERFORMER “Kreator”
INDEX 01 17:10:07
TRACK 06 AUDIO
TITLE “Passage To Babylon”
PERFORMER “Kreator”
INDEX 01 22:33:35
TRACK 07 AUDIO
TITLE “Future Ring”
PERFORMER “Kreator”
INDEX 01 26:58:25
TRACK 08 AUDIO
TITLE “Entry”
PERFORMER “Kreator”
INDEX 01 31:42:40
TRACK 09 AUDIO
TITLE “Soul Eraser”
PERFORMER “Kreator”
INDEX 01 32:47:52
TRACK 10 AUDIO
TITLE “Willing Spirit”
PERFORMER “Kreator”
INDEX 01 37:17:57
TRACK 11 AUDIO
TITLE “Pandemonium”
PERFORMER “Kreator”
INDEX 01 41:54:17
TRACK 12 AUDIO
TITLE “Tyranny”
PERFORMER “Kreator”
INDEX 01 46:05:02


Leave a Reply

Your email address will not be published. Required fields are marked *

This site uses Akismet to reduce spam. Learn how your comment data is processed.