Kreator – Endorama (Japanese Edition)




Artist: Kreator
Year: 1999
Genre: Metal
Notes: Discogs
Add. Notes: Japanese Edition
Cover incl.: Yes
Encoder: FLAC
Bitrate: ~1000 kBit/s (44.1 kHz/16 Bit/s)
Log & Cue incl.: Yes
Size: 425,82 MB
Password: “slam” (without ” “)


All Downloads/Hosters are compatible

Download 1
Turbobit.net
Rapidgator.net
KatFile.com
UploadRar.com
Download 2
Turbobit.net
Rapidgator.net
KatFile.com
UploadRar.com
Download 3
Turbobit.net
Rapidgator.net
KatFile.com
UploadRar.com

Tracklist:

1 - Golden Age - 4:52
2 - Endorama - 3:20
3 - Shadowland - 4:27
4 - Chosen Few - 4:30
5 - Everlasting Flame - 5:23
6 - Passage To Babylon - 4:24
7 - Future King - 4:44
8 - Entry - 1:05
9 - Soul Eraser - 4:30
10 - Willing Spirit - 4:36
11 - Pandemonium - 4:10
12 - Tyranny - 3:59
Bonus Track For Japan
13 - Children Of A Lesser God - 3:33

EAC-Log, CUE-Sheed & NFO:

Click to open spoiler
Exact Audio Copy V0.99 prebeta 3 from 28. July 2007

Отчёт EAC об извлечении, выполненном 20. мая 2010, 19:08

Kreator / Endorama [VICP-60704]

Дисковод: TSSTcorpCDDVDW SH-S202H Adapter: 0 ID: 0

Режим чтения : Достоверность
Использование точного потока : Да
Отключение кэша аудио : Да
Использование указателей C2 : Нет

Коррекция смещения при чтении : 6
Способность читать области Lead-in и Lead-out : Нет
Заполнение пропущенных сэмплов тишиной : Да
Удаление блоков с тишиной в начале и конце : Нет
При вычислениях CRC использовались нулевые сэмплы : Да
Интерфейс : Установленный внешний ASPI-интерфейс

Выходной формат : Внутренние WAV-операции
Формат сэмплов : 44.100 Гц; 16 бит; стерео

TOC извлечённого CD

Трек | Старт | Длительность | Начальный сектор | Конечный сектор
———————————————————————
1 | 0:00.37 | 4:50.60 | 37 | 21846
2 | 4:51.22 | 3:20.43 | 21847 | 36889
3 | 8:11.65 | 4:28.07 | 36890 | 56996
4 | 12:39.72 | 4:30.35 | 56997 | 77281
5 | 17:10.32 | 5:23.28 | 77282 | 101534
6 | 22:33.60 | 4:24.65 | 101535 | 121399
7 | 26:58.50 | 4:44.15 | 121400 | 142714
8 | 31:42.65 | 1:05.12 | 142715 | 147601
9 | 32:48.02 | 4:30.05 | 147602 | 167856
10 | 37:18.07 | 4:36.35 | 167857 | 188591
11 | 41:54.42 | 4:10.60 | 188592 | 207401
12 | 46:05.27 | 3:59.43 | 207402 | 225369
13 | 50:04.70 | 3:33.25 | 225370 | 241369

Характеристики диапазона извлечения и сообщения об ошибках

Выбранный диапазон

Имя файла C:\Downloads\EAC\Kreator – Endorama [VICP-60704].wav

Пиковый уровень 99.9 %
Качество диапазона 100.0 %
CRC теста 7F8FDD05
CRC копии 7F8FDD05
Копирование… OK

Ошибок не произошло

AccurateRip: сводка

Трек 1 нет в базе данных
Трек 2 нет в базе данных
Трек 3 нет в базе данных
Трек 4 нет в базе данных
Трек 5 нет в базе данных
Трек 6 нет в базе данных
Трек 7 нет в базе данных
Трек 8 нет в базе данных
Трек 9 нет в базе данных
Трек 10 нет в базе данных
Трек 11 нет в базе данных
Трек 12 нет в базе данных
Трек 13 нет в базе данных

Ни одного трека нет в базе AccurateRip

Конец отчёта

REM GENRE “Metal”
REM DATE 1999
REM DISCID 9F0C920D
REM COMMENT “ExactAudioCopy v0.99pb3”
PERFORMER “Kreator”
TITLE “Endorama (VICP-60704)”
FILE “Kreator – Endorama (VICP-60704).flac” WAVE
TRACK 01 AUDIO
TITLE “Golden Age”
PERFORMER “Kreator”
INDEX 00 00:00:00
INDEX 01 00:00:37
TRACK 02 AUDIO
TITLE “Endorama”
PERFORMER “Kreator”
INDEX 01 04:51:22
TRACK 03 AUDIO
TITLE “Shadowland”
PERFORMER “Kreator”
INDEX 01 08:11:65
TRACK 04 AUDIO
TITLE “Chosen Few”
PERFORMER “Kreator”
INDEX 01 12:39:72
TRACK 05 AUDIO
TITLE “Everlasting Flame”
PERFORMER “Kreator”
INDEX 01 17:10:32
TRACK 06 AUDIO
TITLE “Passage To Babylon”
PERFORMER “Kreator”
INDEX 01 22:33:60
TRACK 07 AUDIO
TITLE “Future Ring”
PERFORMER “Kreator”
INDEX 01 26:58:50
TRACK 08 AUDIO
TITLE “Entry”
PERFORMER “Kreator”
INDEX 01 31:42:65
TRACK 09 AUDIO
TITLE “Soul Eraser”
PERFORMER “Kreator”
INDEX 01 32:48:02
TRACK 10 AUDIO
TITLE “Willing Spirit”
PERFORMER “Kreator”
INDEX 01 37:18:07
TRACK 11 AUDIO
TITLE “Pandemonium”
PERFORMER “Kreator”
INDEX 01 41:54:42
TRACK 12 AUDIO
TITLE “Tyranny”
PERFORMER “Kreator”
INDEX 01 46:05:27
TRACK 13 AUDIO
TITLE “Children Of A Lesser God (Bonus track)”
PERFORMER “Kreator”
INDEX 00 50:04:46
INDEX 01 50:04:70


Leave a Reply

Your email address will not be published. Required fields are marked *

This site uses Akismet to reduce spam. Learn how your comment data is processed.