Kreator – Endorama (Extended Edition)




Artist: Kreator
Year: 2003
Genre: Metal
Notes: Discogs
Add. Notes: Extended Edition
Cover incl.: Yes
Encoder: FLAC
Bitrate: ~1000 kBit/s (44.1 kHz/16 Bit/s)
Log & Cue incl.: Yes
Size: 496,89 MB
Password: “slam” (without ” “)


All Downloads/Hosters are compatible

Download 1
Turbobit.net
Rapidgator.net
KatFile.com
UploadRar.com
Download 2
Turbobit.net
Rapidgator.net
KatFile.com
UploadRar.com
Download 3
Turbobit.net
Rapidgator.net
KatFile.com
UploadRar.com

Tracklist:

1 - Golden Age - 4:52
2 - Endorama - 3:20
3 - Shadowland - 4:27
4 - Chosen Few - 4:30
5 - Everlasting Flame - 5:23
6 - Passage To Babylon - 4:24
7 - Future Ring - 4:44
8 - Entry - 1:05
9 - Soul Eraser - 4:30
10 - Willing Spirit - 4:36
11 - Pandemonium - 4:10
12 - Tyranny - 3:59
Bonus Tracks
13 - Children Of A Lesser God - 3:36

EAC-Log, CUE-Sheed & NFO:

Click to open spoiler
Exact Audio Copy V1.0 beta 3 from 29. August 2011

EAC extraction logfile from 9. April 2013, 14:22

Kreator / Endorama

Used drive : TSSTcorpCDDVDW SH-S203B Adapter: 2 ID: 0

Read mode : Secure
Utilize accurate stream : Yes
Defeat audio cache : Yes
Make use of C2 pointers : No

Read offset correction : 6
Overread into Lead-In and Lead-Out : No
Fill up missing offset samples with silence : Yes
Delete leading and trailing silent blocks : No
Null samples used in CRC calculations : Yes
Used interface : Native Win32 interface for Win NT & 2000

Used output format : Internal WAV Routines
Sample format : 44.100 Hz; 16 Bit; Stereo

TOC of the extracted CD

Track | Start | Length | Start sector | End sector
———————————————————
1 | 0:00.01 | 4:51.63 | 1 | 21888
2 | 4:51.64 | 3:20.55 | 21889 | 36943
3 | 8:12.44 | 4:27.57 | 36944 | 57025
4 | 12:40.26 | 4:30.35 | 57026 | 77310
5 | 17:10.61 | 5:23.28 | 77311 | 101563
6 | 22:34.14 | 4:24.65 | 101564 | 121428
7 | 26:59.04 | 4:44.15 | 121429 | 142743
8 | 31:43.19 | 1:05.12 | 142744 | 147630
9 | 32:48.31 | 4:30.05 | 147631 | 167885
10 | 37:18.36 | 4:36.35 | 167886 | 188620
11 | 41:54.71 | 4:10.60 | 188621 | 207430
12 | 46:05.56 | 4:01.61 | 207431 | 225566
13 | 50:07.42 | 3:34.20 | 225567 | 241636
14 | 56:13.62 | 8:36.17 | 253037 | 291753

Range status and errors

Selected range

Filename C:\Incoming\UncleSandy\Kreator – Endorama.wav

Peak level 100.0 %
Extraction speed 7.7 X
Range quality 100.0 %
Test CRC 3CD7CE86
Copy CRC 3CD7CE86
Copy OK

No errors occurred

AccurateRip summary

Track 1 accurately ripped (confidence 3) [B1C7513F] (AR v1)
Track 2 accurately ripped (confidence 3) [A35CCC8D] (AR v1)
Track 3 accurately ripped (confidence 3) [75DFA233] (AR v1)
Track 4 accurately ripped (confidence 3) [5A3C228F] (AR v1)
Track 5 accurately ripped (confidence 2) [B30B8BF9] (AR v1)
Track 6 accurately ripped (confidence 3) [25E2D952] (AR v1)
Track 7 accurately ripped (confidence 2) [72EFCE37] (AR v1)
Track 8 accurately ripped (confidence 3) [CAA4CB02] (AR v1)
Track 9 accurately ripped (confidence 3) [56B9B037] (AR v1)
Track 10 accurately ripped (confidence 3) [2C9A46A1] (AR v1)
Track 11 accurately ripped (confidence 3) [2735D9EF] (AR v1)
Track 12 accurately ripped (confidence 3) [BC91AAA8] (AR v1)
Track 13 accurately ripped (confidence 3) [0FD91FFD] (AR v1)

All tracks accurately ripped

End of status report

==== Log checksum 7E3BFFA06F1CD6BBF99562B49BBE2D1F757D84064744D6B78715C524115912A1 ====

REM GENRE “Metal”
REM DATE 1999
REM DISCID B90F320E
REM COMMENT “ExactAudioCopy v1.0b3”
PERFORMER “Kreator”
TITLE “Endorama (AMG 099)”
FILE “Kreator – Endorama (AMG 099).flac” WAVE
TRACK 01 AUDIO
TITLE “Golden Age”
PERFORMER “Kreator”
ISRC

Leave a Reply

Your email address will not be published. Required fields are marked *

Enter the text from the image below
 

This site uses Akismet to reduce spam. Learn how your comment data is processed.