Kreator – Endless Pain (Remastered)




Artist: Kreator
Year: 1985/2017
Genre: Metal
Notes: Discogs
Add. Notes: Remastered
Cover incl.: Yes
Encoder: FLAC
Bitrate: ~1000 kBit/s (44.1 kHz/16 Bit/s)
Log & Cue incl.: Yes
Size: 577,57 MB
Password: “slam” (without ” “)


All Downloads/Hosters are compatible

Download 1
Turbobit.net
Rapidgator.net
UploadEver.com
KatFile.com
UsersDrive.com
Download 2
Turbobit.net
Rapidgator.net
UploadEver.com
KatFile.com
UsersDrive.com
Download 3
Turbobit.net
Rapidgator.net
UploadEver.com
KatFile.com
UsersDrive.com

Tracklist:

1 - Endless Pain - 3:33
2 - Total Death - 3:26
3 - Storm Of The Beast - 5:00
4 - Tormentor - 2:53
5 - Son Of Evil - 4:15
6 - Flag Of Hate - 4:40
7 - Cry War - 3:44
8 - Bonebreaker - 2:56
9 - Living In Fear - 3:11
10 - Dying Victims - 4:49
"Blitzkrieg Demo" bonus tracks:
11 - Satans Day - 3:34
12 - Messenger From Burning Hell - 4:14
"End Of The World Demo" bonus tracks:
13 - Armies Of Hell - 5:15
14 - Tormentor - 2:54
15 - Cry War - 4:20
16 - Bonebreaker - 4:02

EAC-Log, CUE-Sheed & NFO:

Click to open spoiler
Exact Audio Copy V1.3 from 2. September 2016

EAC extraction logfile from 10. June 2017, 0:51

Kreator / Endless Pain (2017)

Used drive : ATAPI iHAS122 W Adapter: 2 ID: 0

Read mode : Secure
Utilize accurate stream : Yes
Defeat audio cache : Yes
Make use of C2 pointers : No

Read offset correction : 48
Overread into Lead-In and Lead-Out : No
Fill up missing offset samples with silence : Yes
Delete leading and trailing silent blocks : No
Null samples used in CRC calculations : Yes
Used interface : Installed external ASPI interface

Used output format : User Defined Encoder
Selected bitrate : 1024 kBit/s
Quality : High
Add ID3 tag : No
Command line compressor : C:\Program Files\FLAC\flac.exe
Additional command line options : -V -8 -T “Date=%year%” -T “Genre=%genre%” -T”COMMENT=Ripped by Ilijan – ilko” -8 -V %source%

TOC of the extracted CD

Track | Start | Length | Start sector | End sector
———————————————————
1 | 0:00.00 | 3:35.28 | 0 | 16152
2 | 3:35.28 | 3:28.28 | 16153 | 31780
3 | 7:03.56 | 5:01.26 | 31781 | 54381
4 | 12:05.07 | 2:55.51 | 54382 | 67557
5 | 15:00.58 | 4:16.67 | 67558 | 86824
6 | 19:17.50 | 4:42.47 | 86825 | 108021
7 | 24:00.22 | 3:45.23 | 108022 | 124919
8 | 27:45.45 | 2:58.13 | 124920 | 138282
9 | 30:43.58 | 3:12.55 | 138283 | 152737
10 | 33:56.38 | 4:50.39 | 152738 | 174526
11 | 38:47.02 | 3:34.67 | 174527 | 190643
12 | 42:21.69 | 4:16.54 | 190644 | 209897
13 | 46:38.48 | 5:16.46 | 209898 | 233643
14 | 51:55.19 | 2:55.04 | 233644 | 246772
15 | 54:50.23 | 4:20.64 | 246773 | 266336
16 | 59:11.12 | 4:01.26 | 266337 | 284437

Range status and errors

Selected range

Filename D:\ilko\Kreator – Endless Pain (2017).wav

Peak level 97.0 %
Extraction speed 4.2 X
Range quality 100.0 %
Test CRC 579AB985
Copy CRC 579AB985
Copy OK

No errors occurred

AccurateRip summary

Track 1 not present in database
Track 2 not present in database
Track 3 not present in database
Track 4 not present in database
Track 5 not present in database
Track 6 not present in database
Track 7 not present in database
Track 8 not present in database
Track 9 not present in database
Track 10 not present in database
Track 11 not present in database
Track 12 not present in database
Track 13 not present in database
Track 14 not present in database
Track 15 not present in database
Track 16 not present in database

None of the tracks are present in the AccurateRip database

End of status report

—- CUETools DB Plugin V2.1.6

[CTDB TOCID: iTeCMS0XII73pK28xyFG.v.0mD8-] disk not present in database
Submit result: iTeCMS0XII73pK28xyFG.v.0mD8- has been uploaded

==== Log checksum 266E87D524140ADFDCDBDC4DA956E90A9BB1D3E52D8C88F8AA27275638E6A6BB ====

REM GENRE “Thrash Metal”
REM DATE 1985/2017
REM DISCID D40ED010
REM COMMENT “ExactAudioCopy v1.3”
PERFORMER “Kreator”
TITLE “Endless Pain (NOISECD021)”
FILE “Kreator – Endless Pain (NOISECD021).flac” WAVE
TRACK 01 AUDIO
TITLE “Endless Pain”
PERFORMER “Kreator”
INDEX 01 00:00:00
TRACK 02 AUDIO
TITLE “Total Death”
PERFORMER “Kreator”
INDEX 00 03:32:71
INDEX 01 03:35:28
TRACK 03 AUDIO
TITLE “Storm Of The Beast”
PERFORMER “Kreator”
INDEX 00 07:01:17
INDEX 01 07:03:56
TRACK 04 AUDIO
TITLE “Tormentor”
PERFORMER “Kreator”
INDEX 00 12:02:63
INDEX 01 12:05:07
TRACK 05 AUDIO
TITLE “Son Of Evil”
PERFORMER “Kreator”
INDEX 00 14:57:09
INDEX 01 15:00:58
TRACK 06 AUDIO
TITLE “Flag Of hate”
PERFORMER “Kreator”
INDEX 00 19:14:73
INDEX 01 19:17:50
TRACK 07 AUDIO
TITLE “Cry War”
PERFORMER “Kreator”
INDEX 00 23:57:30
INDEX 01 24:00:22
TRACK 08 AUDIO
TITLE “Bonebreaker”
PERFORMER “Kreator”
INDEX 00 27:43:26
INDEX 01 27:45:45
TRACK 09 AUDIO
TITLE “Living In Fear”
PERFORMER “Kreator”
INDEX 00 30:41:45
INDEX 01 30:43:58
TRACK 10 AUDIO
TITLE “Dying Victims”
PERFORMER “Kreator”
INDEX 00 33:54:19
INDEX 01 33:56:38
TRACK 11 AUDIO
TITLE “Satan’s Day (Demo) (Bonus track)”
PERFORMER “Tormentor”
INDEX 00 38:43:17
INDEX 01 38:47:02
TRACK 12 AUDIO
TITLE “Messenger From Burning Hell (Demo) (Bonus track)”
PERFORMER “Tormentor”
INDEX 00 42:20:18
INDEX 01 42:21:69
TRACK 13 AUDIO
TITLE “Armies Of Hell (Demo) (Bonus track)”
PERFORMER “Tormentor”
INDEX 00 46:35:70
INDEX 01 46:38:48
TRACK 14 AUDIO
TITLE “Tormentor (Demo) (Bonus track)”
PERFORMER “Tormentor”
INDEX 00 51:53:45
INDEX 01 51:55:19
TRACK 15 AUDIO
TITLE “Cry War (Demo) (Bonus track)”
PERFORMER “Tormentor”
INDEX 00 54:48:44
INDEX 01 54:50:23
TRACK 16 AUDIO
TITLE “Bonebreaker (Demo) (Bonus track)”
PERFORMER “Tormentor”
INDEX 00 59:09:37
INDEX 01 59:11:12


Leave a Reply

Your email address will not be published. Required fields are marked *

This site uses Akismet to reduce spam. Learn how your comment data is processed.