Kreator – Endless Pain




Artist: Kreator
Year: 1985/1989
Genre: Rock
Notes: Discogs
Add. Notes:
Cover incl.: Yes
Encoder: FLAC
Bitrate: ~900 kBit/s (44.1 kHz/16 Bit/s)
Log & Cue incl.: Yes
Size: 370,13 MB
Password: “slam” (without ” “)


All Downloads/Hosters are compatible

Download 1
Turbobit.net
Rapidgator.net
KatFile.com
UploadRar.com
Download 2
Turbobit.net
Rapidgator.net
KatFile.com
UploadRar.com

Tracklist:

1 - Endless Pain - 3:30
2 - Total Death - 3:25
3 - Storm Of The Beast - 4:58
4 - Tormentor - 2:52
5 - Son Of Evil - 4:13
6 - Take Their Lives - 6:25
7 - Flag Of Hate - 3:54
8 - Cry War - 3:42
9 - Bonebreaker - 2:55
10 - Living In Fear - 3:09
11 - Dying Victims - 4:46
12 - Awakening Of The Gods - 7:29

EAC-Log, CUE-Sheed & NFO:

Click to open spoiler
Exact Audio Copy V1.0 beta 3 from 29. August 2011

EAC extraction logfile from 23. August 2013, 14:02

Kreator / Endless Pain [Noise, WK 44455, USA]

Used drive : PIONEER DVD-RW DVR-112D Adapter: 0 ID: 0

Read mode : Secure
Utilize accurate stream : Yes
Defeat audio cache : Yes
Make use of C2 pointers : No

Read offset correction : 48
Overread into Lead-In and Lead-Out : No
Fill up missing offset samples with silence : Yes
Delete leading and trailing silent blocks : No
Null samples used in CRC calculations : Yes
Used interface : Installed external ASPI interface

Used output format : User Defined Encoder
Selected bitrate : 1024 kBit/s
Quality : High
Add ID3 tag : No
Command line compressor : C:\Program Files\Exact Audio Copy\FLAC\FLAC.EXE
Additional command line options : -V -8 -T “Date=%year%” -T “Genre=%genre%” %source%

TOC of the extracted CD

Track | Start | Length | Start sector | End sector
———————————————————
1 | 0:00.00 | 3:33.12 | 0 | 15986
2 | 3:33.12 | 3:28.30 | 15987 | 31616
3 | 7:01.42 | 5:01.30 | 31617 | 54221
4 | 12:02.72 | 2:55.50 | 54222 | 67396
5 | 14:58.47 | 4:16.68 | 67397 | 86664
6 | 19:15.40 | 6:27.47 | 86665 | 115736
7 | 25:43.12 | 3:56.40 | 115737 | 133476
8 | 29:39.52 | 3:45.05 | 133477 | 150356
9 | 33:24.57 | 2:58.15 | 150357 | 163721
10 | 36:22.72 | 3:12.53 | 163722 | 178174
11 | 39:35.50 | 4:48.42 | 178175 | 199816
12 | 44:24.17 | 7:29.23 | 199817 | 233514

Range status and errors

Selected range

Filename C:\CDRip by Deminbek\Kreator – Endless Pain [Noise, WK 44455, USA].wav

Peak level 100.0 %
Extraction speed 6.9 X
Range quality 99.9 %
Test CRC AC117E34
Copy CRC AC117E34
Copy OK

No errors occurred

AccurateRip summary

Track 1 accurately ripped (confidence 3) [8DC5BB1B] (AR v1)
Track 2 accurately ripped (confidence 3) [C2574BEB] (AR v1)
Track 3 accurately ripped (confidence 3) [523FFB21] (AR v1)
Track 4 accurately ripped (confidence 3) [42D7FD0E] (AR v1)
Track 5 accurately ripped (confidence 3) [E05CFEEC] (AR v1)
Track 6 accurately ripped (confidence 3) [3325B2C6] (AR v1)
Track 7 accurately ripped (confidence 3) [ABC76071] (AR v1)
Track 8 accurately ripped (confidence 3) [83F1A36D] (AR v1)
Track 9 accurately ripped (confidence 3) [303A4C26] (AR v1)
Track 10 accurately ripped (confidence 3) [6E171270] (AR v1)
Track 11 accurately ripped (confidence 3) [0E33A4EE] (AR v1)
Track 12 accurately ripped (confidence 3) [B5E8A984] (AR v1)

All tracks accurately ripped

End of status report

—- CUETools DB Plugin V2.1.3

[CTDB TOCID: u7a8LxwZQHQ8NIG1eFTzQgsfkrw-] found, Submit result: already submitted
[1a36d225] (9/9) Accurately ripped

==== Log checksum C6B771B7A711ECCC409138E1614BC326416FF887BE41DE12A4BF0D078566ECEA ====

REM GENRE “Thrash Metal”
REM DATE 1985/1989
REM DISCID 950C290C
REM COMMENT “ExactAudioCopy v1.0b3”
PERFORMER “Kreator”
TITLE “Endless Pain (WK 44455)”
FILE “Kreator – Endless Pain (WK 44455).flac” WAVE
TRACK 01 AUDIO
TITLE “Endless Pain”
PERFORMER “Kreator”
INDEX 01 00:00:00
TRACK 02 AUDIO
TITLE “Total Death”
PERFORMER “Kreator”
INDEX 00 03:30:12
INDEX 01 03:33:12
TRACK 03 AUDIO
TITLE “Storm Of The Beast”
PERFORMER “Kreator”
INDEX 00 06:58:42
INDEX 01 07:01:42
TRACK 04 AUDIO
TITLE “Tormentor”
PERFORMER “Kreator”
INDEX 00 11:59:72
INDEX 01 12:02:72
TRACK 05 AUDIO
TITLE “Son Of Evil”
PERFORMER “Kreator”
INDEX 00 14:55:47
INDEX 01 14:58:47
TRACK 06 AUDIO
TITLE “Take Their Lives (Bonus track)”
PERFORMER “Kreator”
INDEX 00 19:12:40
INDEX 01 19:15:40
TRACK 07 AUDIO
TITLE “Flag Of Hate”
PERFORMER “Kreator”
INDEX 00 25:41:12
INDEX 01 25:43:12
TRACK 08 AUDIO
TITLE “Cry War”
PERFORMER “Kreator”
INDEX 00 29:37:52
INDEX 01 29:39:52
TRACK 09 AUDIO
TITLE “Bonebreaker”
PERFORMER “Kreator”
INDEX 00 33:21:57
INDEX 01 33:24:57
TRACK 10 AUDIO
TITLE “Living In Fear”
PERFORMER “Kreator”
INDEX 00 36:19:72
INDEX 01 36:22:72
TRACK 11 AUDIO
TITLE “Dying Victims”
PERFORMER “Kreator”
INDEX 00 39:32:50
INDEX 01 39:35:50
TRACK 12 AUDIO
TITLE “Awakening Of The Gods (Bonus track)”
PERFORMER “Kreator”
INDEX 00 44:22:17
INDEX 01 44:24:17


Leave a Reply

Your email address will not be published. Required fields are marked *

This site uses Akismet to reduce spam. Learn how your comment data is processed.