Kreator – Dying Alive (Limited Edition)




[Total: 0    Average: 0/5]

Artist: Kreator
Year: 2013
Genre: Metal
Notes: Discogs
Add. Notes: Limited Edition
Cover incl.: Yes
Encoder: FLAC
Bitrate: ~1000 kBit/s (44.1 kHz/16 Bit/s)
Log & Cue incl.: Yes
Size: 1167,29 MB
Password: “slam” (without ” “)


All Downloads/Hosters are compatible

Download 1
Share-online.biz
KatFile.com
Rapidgator.net
NitroFlare.com
Download 2
Share-online.biz
KatFile.com
Rapidgator.net
NitroFlare.com

Tracklist:

Dying Alive - Live In Oberhausen 2012
CD1-1 - Intro: Mars Mantra - 1:25
CD1-2 - Phantom Antichrist - 4:35
CD1-3 - From Flood Into Fire - 5:49
CD1-4 - Enemy Of God - 6:06
CD1-5 - Phobia - 3:31
CD1-6 - Hordes Of Chaos - 5:17
CD1-7 - Civilisation Collapse - 4:04
CD1-8 - Voices Of The Dead - 5:09
CD1-9 - Extreme Aggression - 4:31
CD1-10 - People Of The Lie - 3:19
CD1-11 - Death To The World - 5:12
CD1-12 - Solo - 0:39
CD1-13 - Endless Pain - 3:27
CD1-14 - Pleasure To Kill - 4:13
CD2-1 - Intro II - The Patriarch - 0:56
CD2-2 - Violent Revolution - 7:36
CD2-3 - United In Hate - 3:49
CD2-4 - Betrayer - 4:15
CD2-5 - Flag Of Hate / Tormentor / Outro - 7:16
Previously Unreleased Bonus Tracks:
CD2-6 - Intro / The Pestilence - 13:28
CD2-7 - Amok Run - 4:28
CD2-8 - Demon Prince - 5:29
CD2-9 - When The Sun Burns Red - 5:53
CD2-10 - Warcurse - 4:23
Bonus Demo CD
CD3-1 - Intro (Demo) - 0:44
CD3-2 - United In Hate (Demo) - 4:03
CD3-3 - Death To The World (Demo) - 5:16
CD3-4 - Victory Will Come (Demo) - 5:03
CD3-5 - Iron Destiny (Demo) - 4:40
CD3-6 - Phantom Antichrist (Rehearsal Session) - 5:58
CD3-7 - Your Heaven My Hell (Rehearsal Session) - 5:52
CD3-8 - Until Our Paths Cross Again (Rehearsal Session) - 
5:52
CD3-9 - Victory Will Come (Demo) - 3:17

EAC-Log, CUE-Sheed & NFO:

Click to open spoiler
Exact Audio Copy V1.1 from 23. June 2015

EAC extraction logfile from 19. August 2017, 21:42

Kreator / Dying Alive Audio CD I

Used drive : HP DVD Writer 1170d Adapter: 1 ID: 1

Read mode : Secure
Utilize accurate stream : Yes
Defeat audio cache : Yes
Make use of C2 pointers : No

Read offset correction : 6
Overread into Lead-In and Lead-Out : No
Fill up missing offset samples with silence : Yes
Delete leading and trailing silent blocks : No
Null samples used in CRC calculations : Yes
Used interface : Native Win32 interface for Win NT & 2000

Used output format : User Defined Encoder
Selected bitrate : 1024 kBit/s
Quality : High
Add ID3 tag : No
Command line compressor : C:\Program Files (x86)\Exact Audio Copy\Flac\flac.exe
Additional command line options : -V -8 -T “Date=%year%” -T “Genre=%genre%” %source%

TOC of the extracted CD

Track | Start | Length | Start sector | End sector
———————————————————
1 | 0:00.00 | 1:25.03 | 0 | 6377
2 | 1:25.03 | 4:35.03 | 6378 | 27005
3 | 6:00.06 | 5:49.51 | 27006 | 53231
4 | 11:49.57 | 6:06.12 | 53232 | 80693
5 | 17:55.69 | 3:31.07 | 80694 | 96525
6 | 21:27.01 | 5:17.47 | 96526 | 120347
7 | 26:44.48 | 4:03.73 | 120348 | 138645
8 | 30:48.46 | 5:09.43 | 138646 | 161863
9 | 35:58.14 | 4:31.02 | 161864 | 182190
10 | 40:29.16 | 3:19.62 | 182191 | 197177
11 | 43:49.03 | 5:12.64 | 197178 | 220641
12 | 49:01.67 | 0:38.71 | 220642 | 223562
13 | 49:40.63 | 3:27.57 | 223563 | 239144
14 | 53:08.45 | 4:13.63 | 239145 | 258182

Range status and errors

Selected range

Filename C:\EAC\Ungern666\Kreator – Dying Alive Audio CD I.wav

Peak level 100.0 %
Extraction speed 7.0 X
Range quality 100.0 %
Test CRC B8C5F8F4
Copy CRC B8C5F8F4
Copy OK

No errors occurred

AccurateRip summary

Track 1 accurately ripped (confidence 19) [25FE4594] (AR v2)
Track 2 accurately ripped (confidence 19) [5DD730DD] (AR v2)
Track 3 accurately ripped (confidence 18) [C7A6939E] (AR v2)
Track 4 accurately ripped (confidence 18) [28BF9CD2] (AR v2)
Track 5 accurately ripped (confidence 18) [76284178] (AR v2)
Track 6 accurately ripped (confidence 18) [1109738D] (AR v2)
Track 7 accurately ripped (confidence 18) [7117C7CF] (AR v2)
Track 8 accurately ripped (confidence 18) [C06F90B4] (AR v2)
Track 9 accurately ripped (confidence 18) [005D0995] (AR v2)
Track 10 accurately ripped (confidence 18) [E721282B] (AR v2)
Track 11 accurately ripped (confidence 18) [8D851AEA] (AR v2)
Track 12 accurately ripped (confidence 18) [897E8784] (AR v2)
Track 13 accurately ripped (confidence 18) [40C6BDC9] (AR v2)
Track 14 accurately ripped (confidence 18) [65D00995] (AR v2)

All tracks accurately ripped

End of status report

—- CUETools DB Plugin V2.1.6

[CTDB TOCID: wzjekUtRjWsLmXBve4uhRiVZWxE-] found
Submit result: wzjekUtRjWsLmXBve4uhRiVZWxE- has been confirmed
Track | CTDB Status
1 | (45/46) Accurately ripped
2 | (45/46) Accurately ripped
3 | (45/46) Accurately ripped
4 | (45/46) Accurately ripped
5 | (45/46) Accurately ripped
6 | (45/46) Accurately ripped
7 | (45/46) Accurately ripped
8 | (45/46) Accurately ripped
9 | (45/46) Accurately ripped
10 | (45/46) Accurately ripped
11 | (45/46) Accurately ripped
12 | (45/46) Accurately ripped
13 | (45/46) Accurately ripped
14 | (45/46) Accurately ripped

==== Log checksum 07C29DF3FC2429682EEA98BC0873CFCF5C5AE40B42D6D02AD17ED299A6B6A827 ====

Exact Audio Copy V1.1 from 23. June 2015

EAC extraction logfile from 19. August 2017, 22:10

Kreator / Dying Alive Audio CD II

Used drive : HP DVD Writer 1170d Adapter: 1 ID: 1

Read mode : Secure
Utilize accurate stream : Yes
Defeat audio cache : Yes
Make use of C2 pointers : No

Read offset correction : 6
Overread into Lead-In and Lead-Out : No
Fill up missing offset samples with silence : Yes
Delete leading and trailing silent blocks : No
Null samples used in CRC calculations : Yes
Used interface : Native Win32 interface for Win NT & 2000

Used output format : User Defined Encoder
Selected bitrate : 1024 kBit/s
Quality : High
Add ID3 tag : No
Command line compressor : C:\Program Files (x86)\Exact Audio Copy\Flac\flac.exe
Additional command line options : -V -8 -T “Date=%year%” -T “Genre=%genre%” %source%

TOC of the extracted CD

Track | Start | Length | Start sector | End sector
———————————————————
1 | 0:00.00 | 0:56.03 | 0 | 4202
2 | 0:56.03 | 7:36.40 | 4203 | 38442
3 | 8:32.43 | 3:49.29 | 38443 | 55646
4 | 12:21.72 | 4:15.45 | 55647 | 74816
5 | 16:37.42 | 7:16.46 | 74817 | 107562
6 | 23:54.13 | 13:28.35 | 107563 | 168197
7 | 37:22.48 | 4:28.40 | 168198 | 188337
8 | 41:51.13 | 5:29.60 | 188338 | 213072
9 | 47:20.73 | 5:53.52 | 213073 | 239599
10 | 53:14.50 | 4:23.06 | 239600 | 259330

Range status and errors

Selected range

Filename C:\EAC\Ungern666\Kreator – Dying Alive Audio CD II.wav

Peak level 100.0 %
Extraction speed 5.7 X
Range quality 100.0 %
Test CRC C0DEC95F
Copy CRC C0DEC95F
Copy OK

No errors occurred

AccurateRip summary

Track 1 accurately ripped (confidence 24) [8CA06983] (AR v2)
Track 2 accurately ripped (confidence 24) [26B07BED] (AR v2)
Track 3 accurately ripped (confidence 24) [8E52A127] (AR v2)
Track 4 accurately ripped (confidence 24) [C11C87DF] (AR v2)
Track 5 accurately ripped (confidence 24) [7F3667EA] (AR v2)
Track 6 accurately ripped (confidence 24) [AFBBE29C] (AR v2)
Track 7 accurately ripped (confidence 24) [3D71DE63] (AR v2)
Track 8 accurately ripped (confidence 24) [983020E2] (AR v2)
Track 9 accurately ripped (confidence 24) [A9983641] (AR v2)
Track 10 accurately ripped (confidence 24) [0171B698] (AR v2)

All tracks accurately ripped

End of status report

—- CUETools DB Plugin V2.1.6

[CTDB TOCID: 4ba4x4hpmpA7UdUij9pEwXgnR9o-] found
Submit result: 4ba4x4hpmpA7UdUij9pEwXgnR9o- has been confirmed
Track | CTDB Status
1 | (48/49) Accurately ripped
2 | (48/49) Accurately ripped
3 | (48/49) Accurately ripped
4 | (48/49) Accurately ripped
5 | (48/49) Accurately ripped
6 | (48/49) Accurately ripped
7 | (48/49) Accurately ripped
8 | (48/49) Accurately ripped
9 | (48/49) Accurately ripped
10 | (48/49) Accurately ripped

==== Log checksum 16EEDF5E5DD97620521BE9A5F103FB94ABC12B773AF011FDEC7A74A62948D6CC ====

Exact Audio Copy V1.1 from 23. June 2015

EAC extraction logfile from 19. August 2017, 22:31

Kreator / Dying Alive Bonus Demo CD

Used drive : HP DVD Writer 1170d Adapter: 1 ID: 1

Read mode : Secure
Utilize accurate stream : Yes
Defeat audio cache : Yes
Make use of C2 pointers : No

Read offset correction : 6
Overread into Lead-In and Lead-Out : No
Fill up missing offset samples with silence : Yes
Delete leading and trailing silent blocks : No
Null samples used in CRC calculations : Yes
Used interface : Native Win32 interface for Win NT & 2000

Used output format : User Defined Encoder
Selected bitrate : 1024 kBit/s
Quality : High
Add ID3 tag : No
Command line compressor : C:\Program Files (x86)\Exact Audio Copy\Flac\flac.exe
Additional command line options : -V -8 -T “Date=%year%” -T “Genre=%genre%” %source%

TOC of the extracted CD

Track | Start | Length | Start sector | End sector
———————————————————
1 | 0:00.00 | 0:44.26 | 0 | 3325
2 | 0:44.26 | 4:03.57 | 3326 | 21607
3 | 4:48.08 | 5:16.01 | 21608 | 45308
4 | 10:04.09 | 5:03.51 | 45309 | 68084
5 | 15:07.60 | 4:39.72 | 68085 | 89081
6 | 19:47.57 | 5:58.07 | 89082 | 115938
7 | 25:45.64 | 5:52.13 | 115939 | 142351
8 | 31:38.02 | 5:52.13 | 142352 | 168764
9 | 37:30.15 | 3:17.04 | 168765 | 183543

Range status and errors

Selected range

Filename C:\EAC\Ungern666\Kreator – Dying Alive Bonus Demo CD.wav

Peak level 100.0 %
Extraction speed 5.4 X
Range quality 100.0 %
Test CRC 30392E43
Copy CRC 30392E43
Copy OK

No errors occurred

AccurateRip summary

Track 1 accurately ripped (confidence 6) [2BC1D66D] (AR v2)
Track 2 accurately ripped (confidence 6) [37671B8A] (AR v2)
Track 3 accurately ripped (confidence 6) [A4982A3F] (AR v2)
Track 4 accurately ripped (confidence 6) [633A72D2] (AR v2)
Track 5 accurately ripped (confidence 6) [FCB41454] (AR v2)
Track 6 accurately ripped (confidence 6) [0FC01F1C] (AR v2)
Track 7 accurately ripped (confidence 6) [780DED4F] (AR v2)
Track 8 accurately ripped (confidence 6) [299D4D13] (AR v2)
Track 9 accurately ripped (confidence 6) [71C8DEE1] (AR v2)

All tracks accurately ripped

End of status report

—- CUETools DB Plugin V2.1.6

[CTDB TOCID: uwqs7_7J_VU0LxSvBk9m65j3i9o-] found
Submit result: uwqs7_7J_VU0LxSvBk9m65j3i9o- has been confirmed
Track | CTDB Status
1 | (11/11) Accurately ripped
2 | (11/11) Accurately ripped
3 | (11/11) Accurately ripped
4 | (11/11) Accurately ripped
5 | (11/11) Accurately ripped
6 | (11/11) Accurately ripped
7 | (11/11) Accurately ripped
8 | (11/11) Accurately ripped
9 | (11/11) Accurately ripped

==== Log checksum 8DF94B7592528AFEEAFE9E72B7FDD5A8BA1995B5CD363E5B85CCA5A537E6B5C7 ====

REM GENRE Thrash Metal
REM DATE 2013
REM DISCID B60D720E
REM COMMENT “ExactAudioCopy v1.1”
PERFORMER “Kreator”
TITLE “Dying Alive (CD-1) (NB 3053-5)”
FILE “Kreator – Dying Alive (CD-1) (NB 3053-5).flac” WAVE
TRACK 01 AUDIO
TITLE “Intro: Mars Mantra”
PERFORMER “Kreator”
INDEX 01 00:00:00
TRACK 02 AUDIO
TITLE “Phantom Antichrist”
PERFORMER “Kreator”
INDEX 01 01:25:03
TRACK 03 AUDIO
TITLE “From Flood Into Fire”
PERFORMER “Kreator”
INDEX 01 06:00:06
TRACK 04 AUDIO
TITLE “Enemy Of God”
PERFORMER “Kreator”
INDEX 01 11:49:57
TRACK 05 AUDIO
TITLE “Phobia”
PERFORMER “Kreator”
INDEX 01 17:55:69
TRACK 06 AUDIO
TITLE “Hordes Of Chaos”
PERFORMER “Kreator”
INDEX 01 21:27:01
TRACK 07 AUDIO
TITLE “Civilization Collapse (Big Bang)”
PERFORMER “Kreator”
INDEX 01 26:44:48
TRACK 08 AUDIO
TITLE “Voices Of The Dead”
PERFORMER “Kreator”
INDEX 01 30:48:46
TRACK 09 AUDIO
TITLE “Extreme Aggresion”
PERFORMER “Kreator”
INDEX 01 35:58:14
TRACK 10 AUDIO
TITLE “People Of The Lie”
PERFORMER “Kreator”
INDEX 01 40:29:16
TRACK 11 AUDIO
TITLE “Death To The World”
PERFORMER “Kreator”
INDEX 01 43:49:03
TRACK 12 AUDIO
TITLE “Coma Of Souls (Intro)”
PERFORMER “Kreator”
INDEX 01 49:01:67
TRACK 13 AUDIO
TITLE “Endless Pain”
PERFORMER “Kreator”
INDEX 01 49:40:63
TRACK 14 AUDIO
TITLE “Pleasure To Kill”
PERFORMER “Kreator”
INDEX 01 53:08:45

REM GENRE Thrash Metal
REM DATE 2013
REM DISCID 8A0D810A
REM COMMENT “ExactAudioCopy v1.1”
PERFORMER “Kreator”
TITLE “Dying Alive (CD-2) (NB 3053-5)”
FILE “Kreator – Dying Alive (CD-2) (NB 3053-5).flac” WAVE
TRACK 01 AUDIO
TITLE “Intro II: The Patriarch”
PERFORMER “Kreator”
INDEX 01 00:00:00
TRACK 02 AUDIO
TITLE “Violent Revolution”
PERFORMER “Kreator”
INDEX 01 00:56:03
TRACK 03 AUDIO
TITLE “United In Hate”
PERFORMER “Kreator”
INDEX 01 08:32:43
TRACK 04 AUDIO
TITLE “Betrayer”
PERFORMER “Kreator”
INDEX 01 12:21:72
TRACK 05 AUDIO
TITLE “Flag Of Hate / Tormentor”
PERFORMER “Kreator”
INDEX 01 16:37:42
TRACK 06 AUDIO
TITLE “Intro / The Pestilence (Bonus track)”
PERFORMER “Kreator”
INDEX 01 23:54:13
TRACK 07 AUDIO
TITLE “Amok Run (Bonus track)”
PERFORMER “Kreator”
INDEX 01 37:22:48
TRACK 08 AUDIO
TITLE “Demon Prince (Bonus track)”
PERFORMER “Kreator”
INDEX 01 41:51:13
TRACK 09 AUDIO
TITLE “When The Sun Burns Red (Bonus track)”
PERFORMER “Kreator”
INDEX 01 47:20:73
TRACK 10 AUDIO
TITLE “Warcurse (Bonus track)”
PERFORMER “Kreator”
INDEX 01 53:14:50

REM DATE 2013
REM DISCID 6E098F09
REM COMMENT “ExactAudioCopy v1.1”
PERFORMER “Kreator”
TITLE “Dying Alive (Bonus Demo CD) (NB 3053-5)”
FILE “Kreator – Dying Alive (CD-3) (NB 3053-5).flac” WAVE
TRACK 01 AUDIO
TITLE “Intro (Demo)”
PERFORMER “Kreator”
INDEX 01 00:00:00
TRACK 02 AUDIO
TITLE “United In Hate (Demo)”
PERFORMER “Kreator”
INDEX 00 00:42:26
INDEX 01 00:44:26
TRACK 03 AUDIO
TITLE “Death To The World (Demo)”
PERFORMER “Kreator”
INDEX 00 04:46:08
INDEX 01 04:48:08
TRACK 04 AUDIO
TITLE “Victory Will Come (Demo)”
PERFORMER “Kreator”
INDEX 00 10:02:09
INDEX 01 10:04:09
TRACK 05 AUDIO
TITLE “Iron Destiny (Demo)”
PERFORMER “Kreator”
INDEX 00 15:05:60
INDEX 01 15:07:60
TRACK 06 AUDIO
TITLE “Phantom Antichrist (Rehearsal Session)”
PERFORMER “Kreator”
INDEX 00 19:45:57
INDEX 01 19:47:57
TRACK 07 AUDIO
TITLE “Your Heaven My Hell (Rehearsal Session)”
PERFORMER “Kreator”
INDEX 00 25:43:64
INDEX 01 25:45:64
TRACK 08 AUDIO
TITLE “Until Our Paths Cross Again (Rehearsal Session)”
PERFORMER “Kreator”
INDEX 00 31:36:02
INDEX 01 31:38:02
TRACK 09 AUDIO
TITLE “Victory Will Come (Demo)”
PERFORMER “Kreator”
INDEX 00 37:28:15
INDEX 01 37:30:15


Spread the Download

Leave a Reply

Your email address will not be published. Required fields are marked *

Enter the text from the image below
 

This site uses Akismet to reduce spam. Learn how your comment data is processed.