Kreator – Coma Of Souls




Artist: Kreator
Year: 1990
Genre: Metal
Notes: Discogs
Add. Notes:
Cover incl.: Yes
Encoder: FLAC
Bitrate: ~1000 kBit/s (44.1 kHz/16 Bit/s)
Log & Cue incl.: Yes
Size: 349,12 MB
Password: “slam” (without ” “)


All Downloads/Hosters are compatible

Download 1
Turbobit.net
Rapidgator.net
UploadEver.com
KatFile.com
UsersDrive.com
Download 2
Turbobit.net
Rapidgator.net
UploadEver.com
KatFile.com
UsersDrive.com
Download 3
Turbobit.net
Rapidgator.net
UploadEver.com
KatFile.com
UsersDrive.com

Tracklist:

1 - When The Sun Burns Red - 5:31
2 - Coma Of Souls - 4:18
3 - People Of The Lie - 3:15
4 - World Beyond - 2:03
5 - Terror Zone - 5:57
6 - Agents Of Brutality - 5:17
7 - Material World Paranoia - 5:01
8 - Twisted Urges - 2:46
9 - Hidden Dictator - 4:50
10 - Mental Slavery - 5:43

EAC-Log, CUE-Sheed & NFO:

Click to open spoiler
Exact Audio Copy V1.0 beta 3 from 29. August 2011

EAC extraction logfile from 23. August 2013, 12:18

Kreator / Coma Of Souls [Epic, EK 46971, USA]

Used drive : PIONEER DVD-RW DVR-112D Adapter: 0 ID: 0

Read mode : Secure
Utilize accurate stream : Yes
Defeat audio cache : Yes
Make use of C2 pointers : No

Read offset correction : 48
Overread into Lead-In and Lead-Out : No
Fill up missing offset samples with silence : Yes
Delete leading and trailing silent blocks : No
Null samples used in CRC calculations : Yes
Used interface : Installed external ASPI interface

Used output format : User Defined Encoder
Selected bitrate : 1024 kBit/s
Quality : High
Add ID3 tag : No
Command line compressor : C:\Program Files\Exact Audio Copy\FLAC\FLAC.EXE
Additional command line options : -V -8 -T “Date=%year%” -T “Genre=%genre%” %source%

TOC of the extracted CD

Track | Start | Length | Start sector | End sector
———————————————————
1 | 0:00.00 | 5:31.10 | 0 | 24834
2 | 5:31.10 | 4:18.25 | 24835 | 44209
3 | 9:49.35 | 3:15.70 | 44210 | 58904
4 | 13:05.30 | 2:03.18 | 58905 | 68147
5 | 15:08.48 | 5:57.12 | 68148 | 94934
6 | 21:05.60 | 5:17.23 | 94935 | 118732
7 | 26:23.08 | 5:00.67 | 118733 | 141299
8 | 31:24.00 | 2:46.30 | 141300 | 153779
9 | 34:10.30 | 4:50.55 | 153780 | 175584
10 | 39:01.10 | 5:44.30 | 175585 | 201414

Range status and errors

Selected range

Filename C:\CDRip by Deminbek\Kreator – Coma Of Souls [Epic, EK 46971, USA].wav

Peak level 100.0 %
Extraction speed 6.6 X
Range quality 99.9 %
Test CRC BEB53FA7
Copy CRC BEB53FA7
Copy OK

No errors occurred

AccurateRip summary

Track 1 accurately ripped (confidence 3) [9D408E47] (AR v2)
Track 2 accurately ripped (confidence 3) [90D34250] (AR v2)
Track 3 accurately ripped (confidence 3) [D256C594] (AR v2)
Track 4 accurately ripped (confidence 3) [74AABC9B] (AR v2)
Track 5 accurately ripped (confidence 3) [17A7010B] (AR v2)
Track 6 accurately ripped (confidence 3) [6779F675] (AR v2)
Track 7 accurately ripped (confidence 3) [F919D6A0] (AR v2)
Track 8 accurately ripped (confidence 3) [121BD7F2] (AR v2)
Track 9 accurately ripped (confidence 3) [A0931A63] (AR v2)
Track 10 accurately ripped (confidence 3) [9921A4CE] (AR v2)

All tracks accurately ripped

End of status report

—- CUETools DB Plugin V2.1.3

[CTDB TOCID: 2_gSwLRkYu78SkU5ruswdhtJC5s-] found, Submit result: 2_gSwLRkYu78SkU5ruswdhtJC5s- has been confirmed
[f5d9cf0e] (8/8) Accurately ripped

==== Log checksum E783CD7BF2F62F769CE06512CA9485AE74988563C0DE0CA517A9CD9900F985D3 ====

REM GENRE “Thrash Metal”
REM DATE 1990
REM DISCID 890A7D0A
REM COMMENT “ExactAudioCopy v1.0b3”
PERFORMER “Kreator”
TITLE “Coma Of Souls (EK 46971, U.S.A.)”
FILE “Kreator – Coma Of Souls (EK 46971, U.S.A.).flac” WAVE
TRACK 01 AUDIO
TITLE “When The Sun Burns Red”
PERFORMER “Kreator”
INDEX 01 00:00:00
TRACK 02 AUDIO
TITLE “Coma Of Souls”
PERFORMER “Kreator”
INDEX 01 05:31:10
TRACK 03 AUDIO
TITLE “People Of The Lie”
PERFORMER “Kreator”
INDEX 01 09:49:35
TRACK 04 AUDIO
TITLE “World Beyond”
PERFORMER “Kreator”
INDEX 01 13:05:30
TRACK 05 AUDIO
TITLE “Terror Zone”
PERFORMER “Kreator”
INDEX 00 15:08:18
INDEX 01 15:08:48
TRACK 06 AUDIO
TITLE “Agents Of Brutality”
PERFORMER “Kreator”
INDEX 00 21:05:15
INDEX 01 21:05:60
TRACK 07 AUDIO
TITLE “Material World Paranoia”
PERFORMER “Kreator”
INDEX 01 26:23:08
TRACK 08 AUDIO
TITLE “Twisted Urges”
PERFORMER “Kreator”
INDEX 00 31:23:50
INDEX 01 31:24:00
TRACK 09 AUDIO
TITLE “Hidden Dictator”
PERFORMER “Kreator”
INDEX 01 34:10:30
TRACK 10 AUDIO
TITLE “Mental Slavery”
PERFORMER “Kreator”
INDEX 00 39:01:03
INDEX 01 39:01:10


Leave a Reply

Your email address will not be published. Required fields are marked *

Enter the text from the image below
 

This site uses Akismet to reduce spam. Learn how your comment data is processed.