Kreator – Coma Of Souls (Remastered Deluxe Edition)




Artist: Kreator
Year: 1990/2018
Genre: Rock
Notes: Discogs
Add. Notes: Remastered Deluxe Edition
Cover incl.: Yes
Encoder: FLAC
Bitrate: ~1000 kBit/s (44.1 kHz/16 Bit/s)
Log & Cue incl.: Yes
Size: 1010,32 MB
Password: “slam” (without ” “)


All Downloads/Hosters are compatible

Download 1
Turbobit.net
Rapidgator.net
UploadEver.com
KatFile.com
UsersDrive.com
Download 2
Turbobit.net
Rapidgator.net
UploadEver.com
KatFile.com
UsersDrive.com
Download 3
Turbobit.net
Rapidgator.net
UploadEver.com
KatFile.com
UsersDrive.com

Tracklist:

Disc 1
1-1 - When The Sun Burns Red - 5:31
1-2 - Coma Of Souls - 4:18
1-3 - People Of The Lie - 3:15
1-4 - World Beyond - 2:03
1-5 - Terror Zone - 5:57
1-6 - Agents Of Brutality - 5:17
1-7 - Material World Paranoia - 5:01
1-8 - Twisted Urges - 2:46
1-9 - Hidden Dictator - 4:50
1-10 - Mental Slavery - 5:43
Bonus Live CD - Live at Stadthalle F├╝rth, Germany
2-1 - When The Sun Burns Red - 5:51
2-2 - Betrayer - 4:37
2-3 - Terrible Certainty - 5:58
2-4 - Extreme Aggression - 5:50
2-5 - Coma Of Souls - 5:01
2-6 - People Of The Lie - 3:26
2-7 - Choir Of The Damned - 1:27
2-8 - The Pestilence - 8:44
2-9 - Toxic Trace - 4:15
2-10 - Drum Solo - 2:54
2-11 - Terror Zone - 6:04
2-12 - Pleasure To Kill - 6:50
2-13 - Flag Of Hate - 2:59
2-14 - Agents Of Brutality - 5:18
2-15 - Riot Of Violence - 6:11
2-16 - Tormentor - 3:30

EAC-Log, CUE-Sheed & NFO:

Click to open spoiler
Exact Audio Copy V1.3 from 2. September 2016

EAC extraction logfile from 6. May 2018, 11:51

Kreator / Coma Of Souls (NOISE2CD046)

Used drive : ASUS DRW-24B1ST Adapter: 1 ID: 1

Read mode : Secure
Utilize accurate stream : Yes
Defeat audio cache : Yes
Make use of C2 pointers : No

Read offset correction : 6
Overread into Lead-In and Lead-Out : No
Fill up missing offset samples with silence : Yes
Delete leading and trailing silent blocks : No
Null samples used in CRC calculations : Yes
Used interface : Native Win32 interface for Win NT & 2000

Used output format : User Defined Encoder
Selected bitrate : 1024 kBit/s
Quality : High
Add ID3 tag : No
Command line compressor : C:\Program Files (x86)\Exact Audio Copy\Flac\flac.exe
Additional command line options : -V -8 -T “Genre=%genre%” -T “Artist=%artist%” -T “Title=%title%” -T “Album=%albumtitle%” -T “Date=%year%” -T “Tracknumber=%tracknr%” -T “Comment=%comment%” %source%

TOC of the extracted CD

Track | Start | Length | Start sector | End sector
———————————————————
1 | 0:00.00 | 5:31.45 | 0 | 24869
2 | 5:31.45 | 4:18.34 | 24870 | 44253
3 | 9:50.04 | 3:15.68 | 44254 | 58946
4 | 13:05.72 | 2:03.15 | 58947 | 68186
5 | 15:09.12 | 5:56.61 | 68187 | 94947
6 | 21:05.73 | 5:17.44 | 94948 | 118766
7 | 26:23.42 | 5:01.00 | 118767 | 141341
8 | 31:24.42 | 2:46.22 | 141342 | 153813
9 | 34:10.64 | 4:50.67 | 153814 | 175630
10 | 39:01.56 | 5:45.62 | 175631 | 201567

Range status and errors

Selected range

Filename E:\Torrent\Ginger Devil\Kreator 2018\1990 – Coma Of Souls (NOISE2CD046)\CD-1\Kreator – Coma Of Souls (NOISE2CD046).wav

Peak level 97.0 %
Extraction speed 5.2 X
Range quality 99.9 %
Test CRC 45373816
Copy CRC 45373816
Copy OK

No errors occurred

AccurateRip summary

Track 1 accurately ripped (confidence 2) [71757997] (AR v2)
Track 2 accurately ripped (confidence 2) [C0AF73A4] (AR v2)
Track 3 accurately ripped (confidence 2) [4C2AB7A4] (AR v2)
Track 4 accurately ripped (confidence 2) [D67734EF] (AR v2)
Track 5 accurately ripped (confidence 2) [DB763898] (AR v2)
Track 6 accurately ripped (confidence 2) [4D807327] (AR v2)
Track 7 accurately ripped (confidence 2) [17EB3A26] (AR v2)
Track 8 accurately ripped (confidence 2) [079E0699] (AR v2)
Track 9 accurately ripped (confidence 2) [8332DF3A] (AR v2)
Track 10 accurately ripped (confidence 2) [55668944] (AR v2)

All tracks accurately ripped

End of status report

—- CUETools DB Plugin V2.1.6

[CTDB TOCID: RJggDabqMPKb1MwbYzK31hPO2RQ-] found
Submit result: RJggDabqMPKb1MwbYzK31hPO2RQ- has been confirmed
Track | CTDB Status
1 | (23/23) Accurately ripped
2 | (23/23) Accurately ripped
3 | (23/23) Accurately ripped
4 | (22/23) Accurately ripped
5 | (23/23) Accurately ripped
6 | (23/23) Accurately ripped
7 | (23/23) Accurately ripped
8 | (23/23) Accurately ripped
9 | (23/23) Accurately ripped
10 | (23/23) Accurately ripped

==== Log checksum 9A8EB4A57C97F2D8F5CB4B46BC8083BD6675F5FA88AEB94732BF6511E28285AB ====

Exact Audio Copy V1.3 from 2. September 2016

EAC extraction logfile from 6. May 2018, 13:07

Kreator / Live At Stadthalle Furth, Germany (NOISE2CD046)

Used drive : HL-DT-STBD-RE BH16NS40 Adapter: 1 ID: 2

Read mode : Secure
Utilize accurate stream : Yes
Defeat audio cache : Yes
Make use of C2 pointers : No

Read offset correction : 6
Overread into Lead-In and Lead-Out : No
Fill up missing offset samples with silence : Yes
Delete leading and trailing silent blocks : No
Null samples used in CRC calculations : Yes
Used interface : Native Win32 interface for Win NT & 2000

Used output format : User Defined Encoder
Selected bitrate : 1024 kBit/s
Quality : High
Add ID3 tag : No
Command line compressor : C:\Program Files (x86)\Exact Audio Copy\Flac\flac.exe
Additional command line options : -V -8 -T “Genre=%genre%” -T “Artist=%artist%” -T “Title=%title%” -T “Album=%albumtitle%” -T “Date=%year%” -T “Tracknumber=%tracknr%” -T “Comment=%comment%” %source%

TOC of the extracted CD

Track | Start | Length | Start sector | End sector
———————————————————
1 | 0:00.00 | 5:51.17 | 0 | 26341
2 | 5:51.17 | 4:37.30 | 26342 | 47146
3 | 10:28.47 | 5:58.06 | 47147 | 74002
4 | 16:26.53 | 5:50.06 | 74003 | 100258
5 | 22:16.59 | 5:00.53 | 100259 | 122811
6 | 27:17.37 | 3:26.08 | 122812 | 138269
7 | 30:43.45 | 1:27.22 | 138270 | 144816
8 | 32:10.67 | 8:43.48 | 144817 | 184089
9 | 40:54.40 | 4:14.44 | 184090 | 203183
10 | 45:09.09 | 2:54.35 | 203184 | 216268
11 | 48:03.44 | 6:03.48 | 216269 | 243541
12 | 54:07.17 | 6:49.59 | 243542 | 274275
13 | 60:57.01 | 2:58.39 | 274276 | 287664
14 | 63:55.40 | 5:18.08 | 287665 | 311522
15 | 69:13.48 | 6:10.53 | 311523 | 339325
16 | 75:24.26 | 3:30.33 | 339326 | 355108

Range status and errors

Selected range

Filename E:\Torrent\Ginger Devil\Kreator 2018\1990 – Coma Of Souls (NOISE2CD046)\CD-2\Kreator – Live At Stadthalle Furth, Germany (NOISE2CD046).wav

Peak level 97.0 %
Extraction speed 8.0 X
Range quality 100.0 %
Test CRC 89E480CF
Copy CRC 89E480CF
Copy OK

No errors occurred

AccurateRip summary

Track 1 accurately ripped (confidence 1) [D3EA381F] (AR v2)
Track 2 accurately ripped (confidence 1) [E9E4D86C] (AR v2)
Track 3 accurately ripped (confidence 1) [18065011] (AR v2)
Track 4 accurately ripped (confidence 1) [99169D3F] (AR v2)
Track 5 accurately ripped (confidence 1) [32D5E615] (AR v2)
Track 6 accurately ripped (confidence 1) [C1791776] (AR v2)
Track 7 accurately ripped (confidence 1) [99E99824] (AR v2)
Track 8 accurately ripped (confidence 1) [CE0DFC95] (AR v2)
Track 9 accurately ripped (confidence 1) [1F019126] (AR v2)
Track 10 accurately ripped (confidence 1) [0DB9BD56] (AR v2)
Track 11 accurately ripped (confidence 1) [77A5AF6A] (AR v2)
Track 12 accurately ripped (confidence 1) [0DE921E0] (AR v2)
Track 13 accurately ripped (confidence 1) [DD546CE0] (AR v2)
Track 14 accurately ripped (confidence 1) [2216E455] (AR v2)
Track 15 accurately ripped (confidence 1) [A4939568] (AR v2)
Track 16 accurately ripped (confidence 1) [1883A0A6] (AR v2)

All tracks accurately ripped

End of status report

—- CUETools DB Plugin V2.1.6

[CTDB TOCID: S98bwWU2FfbB3zt1XoChaqEs0O8-] found
Submit result: S98bwWU2FfbB3zt1XoChaqEs0O8- has been confirmed
Track | CTDB Status
1 | (17/17) Accurately ripped
2 | (17/17) Accurately ripped
3 | (17/17) Accurately ripped
4 | (17/17) Accurately ripped
5 | (17/17) Accurately ripped
6 | (17/17) Accurately ripped
7 | (17/17) Accurately ripped
8 | (17/17) Accurately ripped
9 | (17/17) Accurately ripped
10 | (17/17) Accurately ripped
11 | (17/17) Accurately ripped
12 | (17/17) Accurately ripped
13 | (17/17) Accurately ripped
14 | (17/17) Accurately ripped
15 | (17/17) Accurately ripped
16 | (17/17) Accurately ripped

==== Log checksum F51994D811F5447413CE212E1D5D6EC263988E0427769C579BEAFAF4E17AF46F ====

REM GENRE “Thrash Metal”
REM DATE 1990/2018
REM DISCID 04127E10
REM COMMENT “ExactAudioCopy v1.3”
CATALOG 4050538336450
PERFORMER “Kreator”
TITLE “Live At Stadthalle Furth, Germany (NOISE2CD046)”
REM COMPOSER “Kreator”
FILE “Kreator – Live At Stadthalle Furth, Germany (NOISE2CD046).flac” WAVE
TRACK 01 AUDIO
TITLE “When The Sun Burns Red”
PERFORMER “Kreator”
REM COMPOSER “Kreator”
ISRC GB5KW1703645
INDEX 01 00:00:00
TRACK 02 AUDIO
TITLE “Betrayer”
PERFORMER “Kreator”
REM COMPOSER “Kreator”
ISRC GB5KW1703362
INDEX 01 05:51:17
TRACK 03 AUDIO
TITLE “Terrible Certainty”
PERFORMER “Kreator”
REM COMPOSER “Kreator”
ISRC GB5KW1703363
INDEX 01 10:28:47
TRACK 04 AUDIO
TITLE “Extreme Aggression”
PERFORMER “Kreator”
REM COMPOSER “Kreator”
ISRC GB5KW1703646
INDEX 01 16:26:53
TRACK 05 AUDIO
TITLE “Coma Of Souls”
PERFORMER “Kreator”
REM COMPOSER “Kreator”
ISRC GB5KW1703648
INDEX 01 22:16:59
TRACK 06 AUDIO
TITLE “People Of The Lie”
PERFORMER “Kreator”
REM COMPOSER “Kreator”
ISRC GB5KW1703366
INDEX 01 27:17:37
TRACK 07 AUDIO
TITLE “Choir Of The Damned”
PERFORMER “Kreator”
REM COMPOSER “Kreator”
ISRC GB5KW1703650
INDEX 01 30:43:45
TRACK 08 AUDIO
TITLE “The Pestilence”
PERFORMER “Kreator”
REM COMPOSER “Kreator”
ISRC GB5KW1703651
INDEX 01 32:10:67
TRACK 09 AUDIO
TITLE “Toxic Trace”
PERFORMER “Kreator”
REM COMPOSER “Kreator”
ISRC GB5KW1703651
INDEX 01 40:54:40
TRACK 10 AUDIO
TITLE “Drum Solo”
PERFORMER “Kreator”
REM COMPOSER “Kreator”
ISRC GB5KW1703654
INDEX 01 45:09:09
TRACK 11 AUDIO
TITLE “Terror Zone”
PERFORMER “Kreator”
REM COMPOSER “Kreator”
ISRC GB5KW1703372
INDEX 01 48:03:44
TRACK 12 AUDIO
TITLE “Pleasure To Kill”
PERFORMER “Kreator”
REM COMPOSER “Kreator”
ISRC GB5KW1703656
INDEX 01 54:07:17
TRACK 13 AUDIO
TITLE “Flag Of Hate”
PERFORMER “Kreator”
REM COMPOSER “Kreator”
ISRC GB5KW1703657
INDEX 01 60:57:01
TRACK 14 AUDIO
TITLE “Agents Of Brutality”
PERFORMER “Kreator”
REM COMPOSER “Kreator”
ISRC GB5KW1703658
INDEX 01 63:55:40
TRACK 15 AUDIO
TITLE “Riot Of Violence”
PERFORMER “Kreator”
REM COMPOSER “Kreator”
ISRC GB5KW1703659
INDEX 01 69:13:48
TRACK 16 AUDIO
TITLE “Tormentor”
PERFORMER “Kreator”
REM COMPOSER “Kreator”
ISRC GB5KW1703660
INDEX 01 75:24:26

REM GENRE “Thrash Metal”
REM DATE 1990/2018
REM DISCID 8B0A7F0A
REM COMMENT “ExactAudioCopy v1.3”
CATALOG 4050538336443
PERFORMER “Kreator”
TITLE “Coma Of Souls (NOISE2CD046)”
REM COMPOSER “Kreator”
FILE “Kreator – Coma Of Souls (NOISE2CD046).flac” WAVE
TRACK 01 AUDIO
TITLE “When The Sun Burns Red”
PERFORMER “Kreator”
REM COMPOSER “Kreator”
ISRC Tb6AW1702766
INDEX 01 00:00:00
TRACK 02 AUDIO
TITLE “Coma Of Souls”
PERFORMER “Kreator”
REM COMPOSER “Kreator”
ISRC Tb6AW1702767
INDEX 01 05:31:45
TRACK 03 AUDIO
TITLE “People Of The Lie”
PERFORMER “Kreator”
REM COMPOSER “Kreator”
ISRC Tb6AW1702768
INDEX 00 09:50:00
INDEX 01 09:50:04
TRACK 04 AUDIO
TITLE “World Beyond”
PERFORMER “Kreator”
REM COMPOSER “Kreator”
ISRC Tb6AW1702769
INDEX 01 13:05:72
TRACK 05 AUDIO
TITLE “Terror Zone”
PERFORMER “Kreator”
REM COMPOSER “Kreator”
ISRC Tb6AW1702770
INDEX 00 15:09:11
INDEX 01 15:09:12
TRACK 06 AUDIO
TITLE “Agents Of Brutality”
PERFORMER “Kreator”
REM COMPOSER “Kreator”
ISRC Tb6AW1702771
INDEX 00 21:05:40
INDEX 01 21:05:73
TRACK 07 AUDIO
TITLE “Material World Paranoia”
PERFORMER “Kreator”
REM COMPOSER “Kreator”
ISRC Tb6AW1702772
INDEX 00 26:23:39
INDEX 01 26:23:42
TRACK 08 AUDIO
TITLE “Twisted Urges”
PERFORMER “Kreator”
REM COMPOSER “Kreator”
ISRC Tb6AW1702773
INDEX 00 31:24:37
INDEX 01 31:24:42
TRACK 09 AUDIO
TITLE “Hidden Dictator”
PERFORMER “Kreator”
REM COMPOSER “Kreator”
ISRC Tb6AW1702774
INDEX 00 34:10:62
INDEX 01 34:10:64
TRACK 10 AUDIO
TITLE “Mental Slavery”
PERFORMER “Kreator”
REM COMPOSER “Kreator”
ISRC Tb6AW1702774
INDEX 00 39:01:55
INDEX 01 39:01:56


Leave a Reply

Your email address will not be published. Required fields are marked *

Enter the text from the image below
 

This site uses Akismet to reduce spam. Learn how your comment data is processed.