Kreator – Coma Of Souls (Japanese Edition)




Artist: Kreator
Year: 1990
Genre: Metal
Notes: Discogs
Add. Notes: Japanese Edition
Cover incl.: Yes
Encoder: FLAC
Bitrate: ~1000 kBit/s (44.1 kHz/16 Bit/s)
Log & Cue incl.: Yes
Size: 361,61 MB
Password: “slam” (without ” “)


All Downloads/Hosters are compatible

Download 1
Turbobit.net
Rapidgator.net
KatFile.com
UploadRar.com
Download 2
Turbobit.net
Rapidgator.net
KatFile.com
UploadRar.com

Tracklist:

1 - When The Sun Burns Red - 5:31
2 - Coma Of Souls - 4:18
3 - People Of The Lie - 3:15
4 - World Beyond - 2:03
5 - Terror Zone - 5:57
6 - Agents Of Brutality - 5:17
7 - Material World Paranoia - 5:01
8 - Twisted Urges - 2:46
9 - Hidden Dictator - 4:50
10 - Mental Slavery - 5:43

EAC-Log, CUE-Sheed & NFO:

Click to open spoiler
Exact Audio Copy V1.0 beta 3 from 29. August 2011

EAC extraction logfile from 19. September 2013, 9:56

Kreator / Coma Of Souls [Epic,Sony, ESCA 5241, Japan]

Used drive : PIONEER DVD-RW DVR-K16S Adapter: 0 ID: 0

Read mode : Secure
Utilize accurate stream : Yes
Defeat audio cache : Yes
Make use of C2 pointers : No

Read offset correction : 48
Overread into Lead-In and Lead-Out : No
Fill up missing offset samples with silence : Yes
Delete leading and trailing silent blocks : No
Null samples used in CRC calculations : Yes
Used interface : Installed external ASPI interface

Used output format : User Defined Encoder
Selected bitrate : 1024 kBit/s
Quality : High
Add ID3 tag : No
Command line compressor : C:\Program Files\Exact Audio Copy\FLAC\FLAC.EXE
Additional command line options : -V -8 -T “Date=%year%” -T “Genre=%genre%” %source%

TOC of the extracted CD

Track | Start | Length | Start sector | End sector
———————————————————
1 | 0:00.00 | 5:30.45 | 0 | 24794
2 | 5:30.45 | 4:18.32 | 24795 | 44176
3 | 9:49.02 | 3:15.68 | 44177 | 58869
4 | 13:04.70 | 2:03.17 | 58870 | 68111
5 | 15:08.12 | 5:57.13 | 68112 | 94899
6 | 21:05.25 | 5:17.15 | 94900 | 118689
7 | 26:22.40 | 5:01.00 | 118690 | 141264
8 | 31:23.40 | 2:46.30 | 141265 | 153744
9 | 34:09.70 | 4:50.55 | 153745 | 175549
10 | 39:00.50 | 5:45.42 | 175550 | 201466

Range status and errors

Selected range

Filename C:\CD Rip By Deminbek\Kreator – Coma Of Souls [Epic,Sony, ESCA 5241, Japan].wav

Peak level 100.0 %
Extraction speed 4.0 X
Range quality 99.9 %
Test CRC 2E0CE7EC
Copy CRC 2E0CE7EC
Copy OK

No errors occurred

AccurateRip summary

Track 1 not present in database
Track 2 not present in database
Track 3 not present in database
Track 4 not present in database
Track 5 not present in database
Track 6 not present in database
Track 7 not present in database
Track 8 not present in database
Track 9 not present in database
Track 10 not present in database

None of the tracks are present in the AccurateRip database

End of status report

—- CUETools DB Plugin V2.1.3

[CTDB TOCID: iT2wi0vWtBnhHQTwBcEcsXsfWRE-] found, Submit result: iT2wi0vWtBnhHQTwBcEcsXsfWRE- has been confirmed
[023b580b] (2/2) Accurately ripped

==== Log checksum 23AB5FA109517C6BE3F2B53535FDD00F96CEDEA7084B7DCE7C5892A0BD034025 ====

REM GENRE “Thrash Metal”
REM DATE 1990
REM DISCID 830A7E0A
REM COMMENT “ExactAudioCopy v1.0b3”
PERFORMER “Kreator”
TITLE “Coma Of Souls (ESCA 5241)”
FILE “Kreator – Coma Of Souls (ESCA 5241).flac” WAVE
TRACK 01 AUDIO
TITLE “When The Sun Burns Red”
PERFORMER “Kreator”
INDEX 01 00:00:00
TRACK 02 AUDIO
TITLE “Coma Of Souls”
PERFORMER “Kreator”
INDEX 01 05:30:45
TRACK 03 AUDIO
TITLE “People Of The Lie”
PERFORMER “Kreator”
INDEX 01 09:49:02
TRACK 04 AUDIO
TITLE “World Beyond”
PERFORMER “Kreator”
INDEX 01 13:04:70
TRACK 05 AUDIO
TITLE “Terror Zone”
PERFORMER “Kreator”
INDEX 01 15:08:12
TRACK 06 AUDIO
TITLE “Agents Of Brutality”
PERFORMER “Kreator”
INDEX 01 21:05:25
TRACK 07 AUDIO
TITLE “Material World Paranoia”
PERFORMER “Kreator”
INDEX 01 26:22:40
TRACK 08 AUDIO
TITLE “Twisted Urges”
PERFORMER “Kreator”
INDEX 01 31:23:40
TRACK 09 AUDIO
TITLE “Hidden Dictator”
PERFORMER “Kreator”
INDEX 01 34:09:70
TRACK 10 AUDIO
TITLE “Mental Slavery”
PERFORMER “Kreator”
INDEX 01 39:00:50


Leave a Reply

Your email address will not be published. Required fields are marked *

This site uses Akismet to reduce spam. Learn how your comment data is processed.