Kreator – Cause For Conflict (Remastered Deluxe Edition)




Artist: Kreator
Year: 1995/2018
Genre: Rock
Notes: Discogs
Add. Notes: Remastered Deluxe Edition
Cover incl.: Yes
Encoder: FLAC
Bitrate: ~900 kBit/s (44.1 kHz/16 Bit/s)
Log & Cue incl.: Yes
Size: 462,48 MB
Password: “slam” (without ” “)


All Downloads/Hosters are compatible

Download 1
Turbobit.net
Rapidgator.net
KatFile.com
UploadRar.com
Download 2
Turbobit.net
Rapidgator.net
KatFile.com
UploadRar.com
Download 3
Turbobit.net
Rapidgator.net
KatFile.com
UploadRar.com

Tracklist:

1 - Prevail - 3:59
2 - Catholic Despot - 3:23
3 - Progressive Proletarians - 3:24
4 - Crisis Of Disorder - 4:17
5 - Hate Inside Your Head - 3:39
6 - Bomb Threat - 1:46
7 - Men Without God - 3:45
8 - Lost - 3:35
9 - Dogmatic - 1:27
10 - Sculpture Of Regret - 2:59
11 - Celestial Deliverance - 3:14
12 - Isolation - 11:57
Bonus Tracks
13 - Suicide In Swamps - 5:11
14 - Limits Of Liberty - 1:40
15 - State Oppression - 1:39

EAC-Log, CUE-Sheed & NFO:

Click to open spoiler
Exact Audio Copy V1.3 from 2. September 2016

EAC extraction logfile from 2. April 2018, 13:12

Kreator / Cause For Conflict (NOISECD048)

Used drive : ASUS DRW-24B1ST Adapter: 1 ID: 1

Read mode : Secure
Utilize accurate stream : Yes
Defeat audio cache : Yes
Make use of C2 pointers : No

Read offset correction : 6
Overread into Lead-In and Lead-Out : No
Fill up missing offset samples with silence : Yes
Delete leading and trailing silent blocks : No
Null samples used in CRC calculations : Yes
Used interface : Native Win32 interface for Win NT & 2000

Used output format : User Defined Encoder
Selected bitrate : 1024 kBit/s
Quality : High
Add ID3 tag : No
Command line compressor : C:\Program Files (x86)\Exact Audio Copy\Flac\flac.exe
Additional command line options : -V -8 -T “Genre=%genre%” -T “Artist=%artist%” -T “Title=%title%” -T “Album=%albumtitle%” -T “Date=%year%” -T “Tracknumber=%tracknr%” -T “Comment=%comment%” %source%

TOC of the extracted CD

Track | Start | Length | Start sector | End sector
———————————————————
1 | 0:00.00 | 3:59.10 | 0 | 17934
2 | 3:59.10 | 3:23.43 | 17935 | 33202
3 | 7:22.53 | 3:24.35 | 33203 | 48537
4 | 10:47.13 | 4:17.09 | 48538 | 67821
5 | 15:04.22 | 3:39.37 | 67822 | 84283
6 | 18:43.59 | 1:46.62 | 84284 | 92295
7 | 20:30.46 | 3:45.63 | 92296 | 109233
8 | 24:16.34 | 3:35.20 | 109234 | 125378
9 | 27:51.54 | 1:27.27 | 125379 | 131930
10 | 29:19.06 | 2:59.19 | 131931 | 145374
11 | 32:18.25 | 3:14.19 | 145375 | 159943
12 | 35:32.44 | 11:57.00 | 159944 | 213718
13 | 47:29.44 | 5:11.08 | 213719 | 237051
14 | 52:40.52 | 1:40.09 | 237052 | 244560
15 | 54:20.61 | 1:39.25 | 244561 | 252010

Range status and errors

Selected range

Filename E:\Torrent\Ginger Devil\Kreator 2018\1995 – Cause For Conflict (NOISECD048)\Kreator – Cause For Conflict (NOISECD048).wav

Peak level 97.0 %
Extraction speed 3.0 X
Range quality 100.0 %
Test CRC A956E53A
Copy CRC A956E53A
Copy OK

No errors occurred

AccurateRip summary

Track 1 not present in database
Track 2 not present in database
Track 3 not present in database
Track 4 not present in database
Track 5 not present in database
Track 6 not present in database
Track 7 not present in database
Track 8 not present in database
Track 9 not present in database
Track 10 not present in database
Track 11 not present in database
Track 12 not present in database
Track 13 not present in database
Track 14 not present in database
Track 15 not present in database

None of the tracks are present in the AccurateRip database

End of status report

—- CUETools DB Plugin V2.1.6

[CTDB TOCID: Yjiu_2190CKZmCWevpyfjQUw5bc-] found
Submit result: Yjiu_2190CKZmCWevpyfjQUw5bc- has been confirmed
Track | CTDB Status
1 | (11/11) Accurately ripped
2 | (11/11) Accurately ripped
3 | (11/11) Accurately ripped
4 | (11/11) Accurately ripped
5 | (11/11) Accurately ripped
6 | (11/11) Accurately ripped
7 | (11/11) Accurately ripped
8 | (11/11) Accurately ripped
9 | (11/11) Accurately ripped
10 | (11/11) Accurately ripped
11 | (11/11) Accurately ripped
12 | (11/11) Accurately ripped
13 | (11/11) Accurately ripped
14 | (11/11) Accurately ripped
15 | (11/11) Accurately ripped

==== Log checksum E955DF0BA26B87C6CB08D05D126F8B178E2F218D3F6AC70381D89D861ED028D9 ====

REM GENRE “Thrash Metal”
REM DATE 1995/2018
REM DISCID BB0D200F
REM COMMENT “ExactAudioCopy v1.3”
CATALOG 4050538336641
PERFORMER “Kreator”
TITLE “Cause For Conflict (NOISECD048)”
REM COMPOSER “Kreator”
FILE “Kreator – Cause For Conflict (NOISECD048).flac” WAVE
TRACK 01 AUDIO
TITLE “Prevail”
PERFORMER “Kreator”
REM COMPOSER “Kreator”
ISRC Tb6AW1702806
INDEX 01 00:00:00
TRACK 02 AUDIO
TITLE “Catholic Despot”
PERFORMER “Kreator”
REM COMPOSER “Kreator”
ISRC Tb6AW1702807
INDEX 01 03:59:10
TRACK 03 AUDIO
TITLE “Progressive Proletarians”
PERFORMER “Kreator”
REM COMPOSER “Kreator”
ISRC Tb6AW1702808
INDEX 01 07:22:53
TRACK 04 AUDIO
TITLE “Crisis Of Disorder”
PERFORMER “Kreator”
REM COMPOSER “Kreator”
ISRC Tb6AW1702809
INDEX 01 10:47:13
TRACK 05 AUDIO
TITLE “Hate Inside Your Head”
PERFORMER “Kreator”
REM COMPOSER “Kreator”
ISRC Tb6AW1702810
INDEX 01 15:04:22
TRACK 06 AUDIO
TITLE “Bomb Threat”
PERFORMER “Kreator”
REM COMPOSER “Kreator”
ISRC Tb6AW1702811
INDEX 00 18:43:22
INDEX 01 18:43:59
TRACK 07 AUDIO
TITLE “Men Without God”
PERFORMER “Kreator”
REM COMPOSER “Kreator”
ISRC Tb6AW1702812
INDEX 00 20:30:23
INDEX 01 20:30:46
TRACK 08 AUDIO
TITLE “Lost”
PERFORMER “Kreator”
REM COMPOSER “Kreator”
ISRC Tb6AW1702813
INDEX 01 24:16:34
TRACK 09 AUDIO
TITLE “Dogmatic”
PERFORMER “Kreator”
REM COMPOSER “Kreator”
ISRC Tb6AW1702814
INDEX 00 27:51:24
INDEX 01 27:51:54
TRACK 10 AUDIO
TITLE “Sculpture Of Regret”
PERFORMER “Kreator”
REM COMPOSER “Kreator”
ISRC Tb6AW1702815
INDEX 00 29:18:04
INDEX 01 29:19:06
TRACK 11 AUDIO
TITLE “Celestial Deliverance”
PERFORMER “Kreator”
REM COMPOSER “Kreator”
ISRC Tb6AW1702816
INDEX 01 32:18:25
TRACK 12 AUDIO
TITLE “Isolation”
PERFORMER “Kreator”
REM COMPOSER “Kreator”
ISRC Tb6AW1702816
INDEX 01 35:32:44
TRACK 13 AUDIO
TITLE “Suicide In Swamps (Bonus track)”
PERFORMER “Kreator”
REM COMPOSER “Kreator”
ISRC Tb6AW1702818
INDEX 00 47:25:60
INDEX 01 47:29:44
TRACK 14 AUDIO
TITLE “Limits Of Liberty (Bonus track)”
PERFORMER “Kreator”
REM COMPOSER “Kreator”
ISRC Tb6AW1702819
INDEX 00 52:38:68
INDEX 01 52:40:52
TRACK 15 AUDIO
TITLE “State Oppression (Bonus track)”
PERFORMER “Kreator”
REM COMPOSER “Kreator”
ISRC Tb6AW1702820
INDEX 00 54:18:62
INDEX 01 54:20:61


Leave a Reply

Your email address will not be published. Required fields are marked *

This site uses Akismet to reduce spam. Learn how your comment data is processed.