Kreator – Cause For Conflict (Limited Edition)




Artist: Kreator
Year: 1995
Genre: Metal
Notes: Discogs
Add. Notes: Limited Edition
Cover incl.: Yes
Encoder: FLAC
Bitrate: ~900 kBit/s (44.1 kHz/16 Bit/s)
Log & Cue incl.: Yes
Size: 401,73 MB
Password: “slam” (without ” “)


All Downloads/Hosters are compatible

Download 1
Turbobit.net
Rapidgator.net
UploadEver.com
KatFile.com
UsersDrive.com
Download 2
Turbobit.net
Rapidgator.net
UploadEver.com
KatFile.com
UsersDrive.com
Download 3
Turbobit.net
Rapidgator.net
UploadEver.com
KatFile.com
UsersDrive.com

Tracklist:

1 - Prevail - 3:59
2 - Catholic Despot - 3:23
3 - Progressive Proletarians - 3:25
4 - Crisis Of Disorder - 4:17
5 - Hate Inside Your Head - 3:39
6 - Bomb Threat - 1:47
7 - Men Without God - 3:46
8 - Lost - 3:35
9 - Dogmatic - 1:28
10 - Sculpture Of Regret - 2:59
11 - Celestial Deliverance - 3:15
12 - State Oppression (Bonus Track) - 1:39
13 - Isolation - 11:55

EAC-Log, CUE-Sheed & NFO:

Click to open spoiler
Exact Audio Copy V0.99 prebeta 5 from 4. May 2009

EAC extraction logfile from 14. August 2010, 19:33

Kreator / Cause For Conflict (Digipack, GUN, 74321 30002 2, Germany)

Used drive : HL-DT-STDVDRAM GSA-T40N Adapter: 3 ID: 0

Read mode : Secure
Utilize accurate stream : Yes
Defeat audio cache : Yes
Make use of C2 pointers : No

Read offset correction : 667
Overread into Lead-In and Lead-Out : No
Fill up missing offset samples with silence : Yes
Delete leading and trailing silent blocks : No
Null samples used in CRC calculations : Yes
Used interface : Native Win32 interface for Win NT & 2000

Used output format : User Defined Encoder
Selected bitrate : 128 kBit/s
Quality : High
Add ID3 tag : No
Command line compressor : C:\Program Files\Exact Audio Copy\Flac\flac.exe
Additional command line options : -8 -V %s

TOC of the extracted CD

Track | Start | Length | Start sector | End sector
———————————————————
1 | 0:00.00 | 3:59.07 | 0 | 17931
2 | 3:59.07 | 3:23.40 | 17932 | 33196
3 | 7:22.47 | 3:24.40 | 33197 | 48536
4 | 10:47.12 | 4:17.08 | 48537 | 67819
5 | 15:04.20 | 3:39.37 | 67820 | 84281
6 | 18:43.57 | 1:46.58 | 84282 | 92289
7 | 20:30.40 | 3:45.65 | 92290 | 109229
8 | 24:16.30 | 3:35.20 | 109230 | 125374
9 | 27:51.50 | 1:27.27 | 125375 | 131926
10 | 29:19.02 | 2:59.18 | 131927 | 145369
11 | 32:18.20 | 3:14.20 | 145370 | 159939
12 | 35:32.40 | 1:39.10 | 159940 | 167374
13 | 37:11.50 | 11:55.25 | 167375 | 221024

Range status and errors

Selected range

Filename C:\Ripped By liveevil\Kreator – Cause For Conflict (Digipack, GUN, 74321 30002 2, Germany).wav

Peak level 99.9 %
Range quality 100.0 %
Test CRC 8E6ED597
Copy CRC 8E6ED597
Copy OK

No errors occurred

AccurateRip summary

Track 1 accurately ripped (confidence 3) [738B4689]
Track 2 accurately ripped (confidence 3) [E52C19B4]
Track 3 accurately ripped (confidence 3) [F3DEC268]
Track 4 accurately ripped (confidence 3) [313614B6]
Track 5 accurately ripped (confidence 3) [2F582403]
Track 6 accurately ripped (confidence 3) [A0AD3FB2]
Track 7 accurately ripped (confidence 3) [2E53E09D]
Track 8 accurately ripped (confidence 3) [16050FC9]
Track 9 accurately ripped (confidence 3) [2780ABEE]
Track 10 accurately ripped (confidence 3) [7263EA2F]
Track 11 accurately ripped (confidence 3) [DEE44544]
Track 12 accurately ripped (confidence 3) [B731CB06]
Track 13 accurately ripped (confidence 3) [846DB16C]

All tracks accurately ripped

End of status report

REM GENRE “Trash Metal”
REM DATE 1995
REM DISCID 9C0B830D
REM COMMENT “ExactAudioCopy v0.99pb5”
PERFORMER “Kreator”
TITLE “Cause For Conflict (74321 30002 2)”
FILE “Kreator – Cause For Conflict (74321 30002 2).flac” WAVE
TRACK 01 AUDIO
TITLE “Prevail”
PERFORMER “Kreator”
ISRC DEC689500482
INDEX 01 00:00:00
TRACK 02 AUDIO
TITLE “Catholics Despot”
PERFORMER “Kreator”
ISRC DEC689500483
INDEX 01 03:59:07
TRACK 03 AUDIO
TITLE “Progressive Proletarians”
PERFORMER “Kreator”
ISRC DEC689500484
INDEX 01 07:22:47
TRACK 04 AUDIO
TITLE “Crisis Of Disorder”
PERFORMER “Kreator”
ISRC DEC689500485
INDEX 01 10:47:12
TRACK 05 AUDIO
TITLE “Hate Inside Your Head”
PERFORMER “Kreator”
ISRC DEC689500486
INDEX 01 15:04:20
TRACK 06 AUDIO
TITLE “Bomb Threat”
PERFORMER “Kreator”
ISRC DEC689500487
INDEX 00 18:43:17
INDEX 01 18:43:57
TRACK 07 AUDIO
TITLE “Men Without God”
PERFORMER “Kreator”
ISRC DEC689500488
INDEX 00 20:30:37
INDEX 01 20:30:40
TRACK 08 AUDIO
TITLE “Lost”
PERFORMER “Kreator”
ISRC DEC689500489
INDEX 01 24:16:30
TRACK 09 AUDIO
TITLE “Dogmatic”
PERFORMER “Kreator”
ISRC DEC689500490
INDEX 00 27:51:27
INDEX 01 27:51:50
TRACK 10 AUDIO
TITLE “Sculpture Of Regret”
PERFORMER “Kreator”
ISRC DEC689500491
INDEX 00 29:18:62
INDEX 01 29:19:02
TRACK 11 AUDIO
TITLE “Celestial Deliverance”
PERFORMER “Kreator”
ISRC DEC689500492
INDEX 01 32:18:20
TRACK 12 AUDIO
TITLE “State Oppression (Bonus track)”
PERFORMER “Kreator”
ISRC DEC689500534
INDEX 01 35:32:40
TRACK 13 AUDIO
TITLE “Isolation”
PERFORMER “Kreator”
ISRC DEC689500493
INDEX 00 37:10:67
INDEX 01 37:11:50


Leave a Reply

Your email address will not be published. Required fields are marked *

This site uses Akismet to reduce spam. Learn how your comment data is processed.