Kreator – Cause For Conflict (Japanese Edition)




Artist: Kreator
Year: 1995
Genre: Metal
Notes: Discogs
Add. Notes: Japanese Edition
Cover incl.: Yes
Encoder: FLAC
Bitrate: ~1000 kBit/s (44.1 kHz/16 Bit/s)
Log & Cue incl.: Yes
Size: 406,47 MB
Password: “slam” (without ” “)


All Downloads/Hosters are compatible

Download 1
Turbobit.net
NitroFlare.com
KatFile.com
Rapidgator.net
Download 2
Turbobit.net
NitroFlare.com
KatFile.com
Rapidgator.net

Tracklist:

1 - Prevail - 3:59
2 - Catholic Despot - 3:23
3 - Progressive Proletarians - 3:24
4 - Crisis Of Disorder - 4:17
5 - Hate Inside Your Head - 3:39
6 - Bomb Threat - 1:47
7 - Men Without God - 3:45
8 - Lost - 3:35
9 - Dogmatic - 1:27
10 - Sculpture Of Regret - 2:59
11 - Celestial Deliverance - 3:14
12 - State Oppression - 1:38
13 - Isolation - 4:17

EAC-Log, CUE-Sheed & NFO:

Click to open spoiler
Exact Audio Copy V1.3 from 2. September 2016

Отчёт EAC об извлечении, выполненном 14. августа 2017, 0:35

Kreator / Cause For Conflict

Дисковод: ASUS DRW-24F1MT Adapter: 1 ID: 0

Режим чтения : Достоверность
Использование точного потока : Да
Отключение кэша аудио : Да
Использование указателей C2 : Нет

Коррекция смещения при чтении : 6
Способность читать области Lead-in и Lead-out : Нет
Заполнение пропущенных сэмплов тишиной : Да
Удаление блоков с тишиной в начале и конце : Нет
При вычислениях CRC использовались нулевые сэмплы : Да
Интерфейс : Встроенный Win32-интерфейс для Win NT/2000

Выходной формат : Пользовательский кодировщик
Выбранный битрейт : 128 kBit/s
Качество : Высокий
Добавление ID3-тега : Нет
Утилита сжатия : C:\Program Files (x86)\Exact Audio Copy\Flac\flac.exe
Дополнительные параметры : -V -8 -T “Date=%year%” -T “Genre=%genre%” %source%

TOC извлечённого CD

Трек | Старт | Длительность | Начальный сектор | Конечный сектор
———————————————————————
1 | 0:00.37 | 3:59.00 | 37 | 17961
2 | 3:59.37 | 3:23.43 | 17962 | 33229
3 | 7:23.05 | 3:24.37 | 33230 | 48566
4 | 10:47.42 | 4:17.15 | 48567 | 67856
5 | 15:04.57 | 3:39.05 | 67857 | 84286
6 | 18:43.62 | 1:47.08 | 84287 | 92319
7 | 20:30.70 | 3:45.62 | 92320 | 109256
8 | 24:16.57 | 3:35.23 | 109257 | 125404
9 | 27:52.05 | 1:27.25 | 125405 | 131954
10 | 29:19.30 | 2:59.17 | 131955 | 145396
11 | 32:18.47 | 3:14.20 | 145397 | 159966
12 | 35:32.67 | 1:38.63 | 159967 | 167379
13 | 37:11.55 | 4:17.60 | 167380 | 186714

Характеристики диапазона извлечения и сообщения об ошибках

Выбранный диапазон

Имя файла C:\Users\Admin\Desktop\Kreator – Cause For Conflict (Japan)\Kreator – Cause For Conflict.wav

Пиковый уровень 97.8 %
Скорость извлечения 2.4 X
Качество диапазона 100.0 %
CRC теста 6BC8EE49
CRC копии 6BC8EE49
Копирование… OK

Ошибок не произошло

AccurateRip: сводка

Трек 1 : извлечено точно (доверие 5) [4C7318E4] (AR v2)
Трек 2 : извлечено точно (доверие 5) [5B9428EE] (AR v2)
Трек 3 : извлечено точно (доверие 5) [960A2B5B] (AR v2)
Трек 4 : извлечено точно (доверие 5) [1739A4CB] (AR v2)
Трек 5 : извлечено точно (доверие 5) [8F60B819] (AR v2)
Трек 6 : извлечено точно (доверие 5) [C4AD1933] (AR v2)
Трек 7 : извлечено точно (доверие 5) [A05059F1] (AR v2)
Трек 8 : извлечено точно (доверие 5) [1041F1E5] (AR v2)
Трек 9 : извлечено точно (доверие 5) [62665793] (AR v2)
Трек 10 : извлечено точно (доверие 5) [D3741FF5] (AR v2)
Трек 11 : извлечено точно (доверие 5) [29FB8131] (AR v2)
Трек 12 : извлечено точно (доверие 5) [2978C837] (AR v2)
Трек 13 : извлечено точно (доверие 5) [4F2571BE] (AR v2)

Все треки извлечены точно

Конец отчёта

==== Контрольная сумма отчёта 2314B981B793B5695B86BD399FA1F5B128CD1604193663FFDDEDB86837A8C223 ====

REM GENRE “Thrash Metal”
REM DATE 1995
REM DISCID 9E09B90D
REM COMMENT “ExactAudioCopy v1.3”
PERFORMER “Kreator”
TITLE “Cause For Conflict (VICP-5609)”
FILE “Kreator – Cause For Conflict (VICP-5609).flac” WAVE
TRACK 01 AUDIO
TITLE “Prevail”
PERFORMER “Kreator”
INDEX 00 00:00:00
INDEX 01 00:00:37
TRACK 02 AUDIO
TITLE “Catholic Despot”
PERFORMER “Kreator”
INDEX 01 03:59:37
TRACK 03 AUDIO
TITLE “Progressive Proletarians”
PERFORMER “Kreator”
INDEX 01 07:23:05
TRACK 04 AUDIO
TITLE “Crisis Of Disorder”
PERFORMER “Kreator”
INDEX 01 10:47:42
TRACK 05 AUDIO
TITLE “Hate Inside Your Head”
PERFORMER “Kreator”
INDEX 01 15:04:57
TRACK 06 AUDIO
TITLE “Bomb Threat”
PERFORMER “Kreator”
INDEX 00 18:43:58
INDEX 01 18:43:62
TRACK 07 AUDIO
TITLE “Men Without God”
PERFORMER “Kreator”
INDEX 01 20:30:70
TRACK 08 AUDIO
TITLE “Lost”
PERFORMER “Kreator”
INDEX 01 24:16:57
TRACK 09 AUDIO
TITLE “Dogmatic Authority”
PERFORMER “Kreator”
INDEX 00 27:51:71
INDEX 01 27:52:05
TRACK 10 AUDIO
TITLE “Sculpture Of Regret”
PERFORMER “Kreator”
INDEX 00 29:19:28
INDEX 01 29:19:30
TRACK 11 AUDIO
TITLE “Celestial Deliverance”
PERFORMER “Kreator”
INDEX 01 32:18:47
TRACK 12 AUDIO
TITLE “State Oppression”
PERFORMER “Kreator”
INDEX 01 35:32:67
TRACK 13 AUDIO
TITLE “Isolation”
PERFORMER “Kreator”
INDEX 00 37:11:36
INDEX 01 37:11:55


Leave a Reply

Your email address will not be published. Required fields are marked *

This site uses Akismet to reduce spam. Learn how your comment data is processed.