Kreator – At The Pulse Of Kapitulation – Live In East Berlin 1990




[Total: 0    Average: 0/5]

Artist: Kreator
Year: 1990
Genre: Metal
Notes: Discogs
Add. Notes:
Cover incl.: Yes
Encoder: FLAC
Bitrate: ~1000 kBit/s (44.1 kHz/16 Bit/s)
Log & Cue incl.: Yes
Size: 530 MB
Password: “slam” (without ” “)


All Downloads/Hosters are compatible

Download 1
Share-online.biz
KatFile.com
Rapidgator.net
Download 2
Share-online.biz
KatFile.com
Rapidgator.net

Tracklist:

1 - Some Pain Will Last - 6:15
2 - Extreme Aggression - 4:27
3 - Under The Guillotine - 4:36
4 - Toxic Trace - 4:22
5 - Bringer Of Torture - 2:45
6 - Pleasure To Kill - 6:14
7 - Flag Of Hate - 2:55
8 - Drum Solo - 2:51
9 - Terrible Certainty - 5:53
10 - Riot Of Violence - 8:00
11 - Love Us Or Hate Us - 3:54
12 - Behind The Mirror - 4:52
13 - Betrayer - 7:34
14 - Awakening Of The Gods - 7:09
15 - Tormentor - 5:26

EAC-Log, CUE-Sheed & NFO:

Click to open spoiler
Exact Audio Copy V1.3 from 2. September 2016

EAC extraction logfile from 27. August 2017, 13:25

Kreator / At the Pulse of Kapitulation: Live in East Berlin 1990

Used drive : ATAPI iHAS122 W Adapter: 2 ID: 0

Read mode : Secure
Utilize accurate stream : Yes
Defeat audio cache : Yes
Make use of C2 pointers : No

Read offset correction : 48
Overread into Lead-In and Lead-Out : No
Fill up missing offset samples with silence : Yes
Delete leading and trailing silent blocks : No
Null samples used in CRC calculations : Yes
Used interface : Installed external ASPI interface

Used output format : User Defined Encoder
Selected bitrate : 1024 kBit/s
Quality : High
Add ID3 tag : No
Command line compressor : C:\Program Files\FLAC\flac.exe
Additional command line options : -V -8 -T “Date=%year%” -T “Genre=%genre%” -T”COMMENT=Ripped by Ilijan – ilko” -8 -V %source%

TOC of the extracted CD

Track | Start | Length | Start sector | End sector
———————————————————
1 | 0:00.00 | 5:39.27 | 0 | 25451
2 | 5:39.27 | 5:23.72 | 25452 | 49748
3 | 11:03.24 | 4:27.16 | 49749 | 69789
4 | 15:30.40 | 4:21.05 | 69790 | 89369
5 | 19:51.45 | 2:26.63 | 89370 | 100382
6 | 22:18.33 | 5:44.18 | 100383 | 126200
7 | 28:02.51 | 3:23.17 | 126201 | 141442
8 | 31:25.68 | 6:11.10 | 141443 | 169277
9 | 37:37.03 | 6:01.01 | 169278 | 196353
10 | 43:38.04 | 3:57.33 | 196354 | 214161
11 | 47:35.37 | 4:48.70 | 214162 | 235831
12 | 52:24.32 | 5:42.48 | 235832 | 261529
13 | 58:07.05 | 7:31.11 | 261530 | 295365
14 | 65:38.16 | 4:56.42 | 295366 | 317607

Range status and errors

Selected range

Filename D:\ilko\Kreator – At the Pulse of Kapitulation- Live in East Berlin 1990.wav

Peak level 99.9 %
Extraction speed 4.5 X
Range quality 100.0 %
Test CRC 03EE53A4
Copy CRC 03EE53A4
Copy OK

No errors occurred

AccurateRip summary

Track 1 accurately ripped (confidence 2) [F0104BEC] (AR v2)
Track 2 accurately ripped (confidence 2) [E1E2F926] (AR v2)
Track 3 accurately ripped (confidence 2) [E87CBB31] (AR v2)
Track 4 accurately ripped (confidence 2) [00F46E97] (AR v2)
Track 5 accurately ripped (confidence 2) [E5645C3E] (AR v2)
Track 6 accurately ripped (confidence 2) [F228FF93] (AR v2)
Track 7 accurately ripped (confidence 2) [8B353B35] (AR v2)
Track 8 accurately ripped (confidence 2) [097EEFA9] (AR v2)
Track 9 accurately ripped (confidence 2) [D6C18CF2] (AR v2)
Track 10 accurately ripped (confidence 2) [D55E9553] (AR v2)
Track 11 accurately ripped (confidence 2) [90B69DA7] (AR v2)
Track 12 accurately ripped (confidence 2) [91D550FD] (AR v2)
Track 13 accurately ripped (confidence 2) [3EC1F652] (AR v2)
Track 14 accurately ripped (confidence 2) [DE8E2A4E] (AR v2)

All tracks accurately ripped

End of status report

—- CUETools DB Plugin V2.1.6

[CTDB TOCID: v1LZzonS5GPU_vi6x9Fy8KT6sKw-] found
Submit result: v1LZzonS5GPU_vi6x9Fy8KT6sKw- has been confirmed
Track | CTDB Status
1 | (14/14) Accurately ripped
2 | (14/14) Accurately ripped
3 | (14/14) Accurately ripped
4 | (14/14) Accurately ripped
5 | (14/14) Accurately ripped
6 | (14/14) Accurately ripped
7 | (14/14) Accurately ripped
8 | (14/14) Accurately ripped
9 | (14/14) Accurately ripped
10 | (14/14) Accurately ripped
11 | (14/14) Accurately ripped
12 | (14/14) Accurately ripped
13 | (14/14) Accurately ripped
14 | (13/14) Accurately ripped

==== Log checksum E404FC77BDE911CAC5B7160CD93C7922F95EF9E1DF77DE1FFB33C656ADE81109 ====

REM GENRE “Thrash Metal”
REM DATE 2008
REM DISCID D2108A0E
REM COMMENT “ExactAudioCopy v1.3”
PERFORMER “Kreator”
TITLE “At The Pulse Of Kapitulation – Live In East Berlin 1990 (SPV 99807 DVD+CD)”
FILE “Kreator – At The Pulse Of Kapitulation (SPV 99807 DVD+CD).flac” WAVE
TRACK 01 AUDIO
TITLE “Some Pain Will Last”
PERFORMER “Kreator”
INDEX 01 00:00:00
TRACK 02 AUDIO
TITLE “Extreme Aggression”
PERFORMER “Kreator”
INDEX 01 05:39:27
TRACK 03 AUDIO
TITLE “Under The Guillotine”
PERFORMER “Kreator”
INDEX 01 11:03:24
TRACK 04 AUDIO
TITLE “Toxic Trace”
PERFORMER “Kreator”
INDEX 01 15:30:40
TRACK 05 AUDIO
TITLE “Bringer Of Torture”
PERFORMER “Kreator”
INDEX 01 19:51:45
TRACK 06 AUDIO
TITLE “Pleasure To Kill”
PERFORMER “Kreator”
INDEX 01 22:18:33
TRACK 07 AUDIO
TITLE “Flag Of Hate”
PERFORMER “Kreator”
INDEX 01 28:02:51
TRACK 08 AUDIO
TITLE “Terrible Certainty”
PERFORMER “Kreator”
INDEX 01 31:25:68
TRACK 09 AUDIO
TITLE “Riot Of Violence”
PERFORMER “Kreator”
INDEX 01 37:37:03
TRACK 10 AUDIO
TITLE “Love Us Or Hate Us”
PERFORMER “Kreator”
INDEX 01 43:38:04
TRACK 11 AUDIO
TITLE “Behind The Mirror”
PERFORMER “Kreator”
INDEX 01 47:35:37
TRACK 12 AUDIO
TITLE “Betrayer”
PERFORMER “Kreator”
INDEX 01 52:24:32
TRACK 13 AUDIO
TITLE “Awakening Of The Gods”
PERFORMER “Kreator”
INDEX 01 58:07:05
TRACK 14 AUDIO
TITLE “Tormentor”
PERFORMER “Kreator”
INDEX 01 65:38:16


Spread the Download

Leave a Reply

Your email address will not be published. Required fields are marked *

Enter the text from the image below
 

This site uses Akismet to reduce spam. Learn how your comment data is processed.