Kreator – 1985-1992 Past Life Trauma (Remastered)




[Total: 0    Average: 0/5]

Artist: Kreator
Year: 2000
Genre: Metal
Notes: Discogs
Add. Notes: Remastered
Cover incl.: Yes
Encoder: FLAC
Bitrate: ~1000 kBit/s (44.1 kHz/16 Bit/s)
Log & Cue incl.: Yes
Size: 612,99 MB
Password: “slam” (without ” “)


All Downloads/Hosters are compatible

Download 1
Share-online.biz
KatFile.com
Rapidgator.net
Download 2
Share-online.biz
KatFile.com
Rapidgator.net

Tracklist:

1 - Betrayer - 4:02
2 - Pleasure To Kill - 4:09
3 - When The Sun Burns Red - 5:31
4 - Endless Pain - 3:31
5 - Winter Martyrium - 6:11
6 - Flag Of Hate - 3:54
7 - Extreme Aggression - 4:43
8 - After The Attack - 3:43
9 - Trauma - 5:10
10 - People Of The Lie - 3:16
11 - Renewal - 4:32
12 - Terrible Certainty - 4:28
13 - Love Us Or Hate Us - 3:42
14 - Total Death - 3:27
15 - Europe After The Rain - 4:25
16 - Under The Guillotine - 4:39
17 - Terror Zone - 5:54
18 - Tormentor - 2:52

EAC-Log, CUE-Sheed & NFO:

Click to open spoiler
Exact Audio Copy V0.99 prebeta 3 from 28. July 2007

Отчёт EAC об извлечении, выполненном 31. августа 2011, 16:36

Kreator / Past Life Trauma

Дисковод: TSSTcorpCDDVDW SH-S202H Adapter: 0 ID: 0

Режим чтения : Достоверность
Использование точного потока : Да
Отключение кэша аудио : Да
Использование указателей C2 : Нет

Коррекция смещения при чтении : 6
Способность читать области Lead-in и Lead-out : Нет
Заполнение пропущенных сэмплов тишиной : Да
Удаление блоков с тишиной в начале и конце : Нет
При вычислениях CRC использовались нулевые сэмплы : Да
Интерфейс : Установленный внешний ASPI-интерфейс

Выходной формат : Внутренние WAV-операции
Формат сэмплов : 44.100 Гц; 16 бит; стерео

TOC извлечённого CD

Трек | Старт | Длительность | Начальный сектор | Конечный сектор
———————————————————————
1 | 0:00.00 | 4:00.25 | 0 | 18024
2 | 4:00.25 | 4:10.27 | 18025 | 36801
3 | 8:10.52 | 5:30.58 | 36802 | 61609
4 | 13:41.35 | 3:31.05 | 61610 | 77439
5 | 17:12.40 | 6:11.55 | 77440 | 105319
6 | 23:24.20 | 3:54.62 | 105320 | 122931
7 | 27:19.07 | 4:43.30 | 122932 | 144186
8 | 32:02.37 | 3:43.48 | 144187 | 160959
9 | 35:46.10 | 5:11.37 | 160960 | 184321
10 | 40:57.47 | 3:15.28 | 184322 | 198974
11 | 44:13.00 | 4:33.25 | 198975 | 219474
12 | 48:46.25 | 4:27.50 | 219475 | 239549
13 | 53:14.00 | 3:43.05 | 239550 | 256279
14 | 56:57.05 | 3:26.45 | 256280 | 271774
15 | 60:23.50 | 4:26.17 | 271775 | 291741
16 | 64:49.67 | 4:38.28 | 291742 | 312619
17 | 69:28.20 | 5:54.72 | 312620 | 339241
18 | 75:23.17 | 2:56.58 | 339242 | 352499

Характеристики диапазона извлечения и сообщения об ошибках

Выбранный диапазон

Имя файла C:\Downloads\EAC\Kreator – Past Life Trauma.wav

Пиковый уровень 99.9 %
Качество диапазона 100.0 %
CRC теста 1A85CD59
CRC копии 1A85CD59
Копирование… OK

Ошибок не произошло

AccurateRip: сводка

Трек 1 точное извлечение (доверие 2) [9758F160]
Трек 2 точное извлечение (доверие 2) [205B18D5]
Трек 3 точное извлечение (доверие 2) [2FF25073]
Трек 4 точное извлечение (доверие 2) [CCA5B49A]
Трек 5 точное извлечение (доверие 2) [7EE3F8E1]
Трек 6 точное извлечение (доверие 2) [5D0B6AC2]
Трек 7 точное извлечение (доверие 2) [A116AB4A]
Трек 8 точное извлечение (доверие 2) [40012AA1]
Трек 9 точное извлечение (доверие 2) [21802244]
Трек 10 точное извлечение (доверие 2) [98859D73]
Трек 11 точное извлечение (доверие 2) [C15CF358]
Трек 12 точное извлечение (доверие 2) [3BEBB041]
Трек 13 точное извлечение (доверие 2) [C234FD2A]
Трек 14 точное извлечение (доверие 2) [45F76FF5]
Трек 15 точное извлечение (доверие 2) [A0A062AB]
Трек 16 точное извлечение (доверие 2) [7C4F4E67]
Трек 17 нет в базе данных
Трек 18 нет в базе данных

16 трек(и) скопированы точно
2 трек(и) не содержатся в базе AccurateRip

Некоторые треки не прошли проверку на точность

Конец отчёта

REM GENRE “Thrash Metal”
REM DATE 2000
REM DISCID 05125C12
REM COMMENT “ExactAudioCopy v0.99pb3”
PERFORMER “Kreator”
TITLE “MCMLXXV-MCMXCII: Past Life Trauma (N 0343-2ux)”
FILE “Kreator – Past Life Trauma (N 0343-2ux).flac” WAVE
TRACK 01 AUDIO
TITLE “Betrayer”
PERFORMER “Kreator”
INDEX 01 00:00:00
TRACK 02 AUDIO
TITLE “Pleasure To Kill”
PERFORMER “Kreator”
INDEX 01 04:00:25
TRACK 03 AUDIO
TITLE “When The Sun Burns Red”
PERFORMER “Kreator”
INDEX 00 08:09:42
INDEX 01 08:10:52
TRACK 04 AUDIO
TITLE “Endless Pain”
PERFORMER “Kreator”
INDEX 01 13:41:35
TRACK 05 AUDIO
TITLE “Winter Martyrium”
PERFORMER “Kreator”
INDEX 01 17:12:40
TRACK 06 AUDIO
TITLE “Flag Of Hate”
PERFORMER “Kreator”
INDEX 01 23:24:20
TRACK 07 AUDIO
TITLE “Extreme Aggression”
PERFORMER “Kreator”
INDEX 01 27:19:07
TRACK 08 AUDIO
TITLE “After The Attack”
PERFORMER “Kreator”
INDEX 01 32:02:37
TRACK 09 AUDIO
TITLE “Trauma”
PERFORMER “Kreator”
INDEX 01 35:46:10
TRACK 10 AUDIO
TITLE “People Of The Lie”
PERFORMER “Kreator”
INDEX 00 40:56:27
INDEX 01 40:57:47
TRACK 11 AUDIO
TITLE “Renewal”
PERFORMER “Kreator”
INDEX 01 44:13:00
TRACK 12 AUDIO
TITLE “Terrible Certainty”
PERFORMER “Kreator”
INDEX 00 48:45:15
INDEX 01 48:46:25
TRACK 13 AUDIO
TITLE “Love Us Or Hate Us”
PERFORMER “Kreator”
INDEX 01 53:14:00
TRACK 14 AUDIO
TITLE “Total Death”
PERFORMER “Kreator”
INDEX 00 56:56:00
INDEX 01 56:57:05
TRACK 15 AUDIO
TITLE “Europe After The Rain”
PERFORMER “Kreator”
INDEX 01 60:23:50
TRACK 16 AUDIO
TITLE “Under The Guillotine”
PERFORMER “Kreator”
INDEX 00 64:48:52
INDEX 01 64:49:67
TRACK 17 AUDIO
TITLE “Terror Zone”
PERFORMER “Kreator”
INDEX 01 69:28:20
TRACK 18 AUDIO
TITLE “Tormentor”
PERFORMER “Kreator”
INDEX 00 75:22:57
INDEX 01 75:23:17


Spread the Download

Leave a Reply

Your email address will not be published. Required fields are marked *

Enter the text from the image below
 

This site uses Akismet to reduce spam. Learn how your comment data is processed.