Korn – Untitled (Limited Edition)




No Cover available

Artist: Korn
Year: 2007
Genre: Metal
Notes: Discogs
Add. Notes: Limited Edition
Watch Songs on: YouTube
Cover incl.: Yes
Encoder: FLAC
Bitrate: ~1000 kBit/s (44.1 kHz/16 Bit/s)
Log & Cue incl.: Yes
Size: 524 MB
Password: “slam” (without ” “)


All Downloads/Hosters are compatible

Download 1
KatFile.com
Turbobit.net
FileFactory.com
Rapidgator.net
Download 2
KatFile.com
Turbobit.net
FileFactory.com
Rapidgator.net

Tracklist:

1 - Intro - 1:57
2 - Starting Over - 4:02
3 - Bitch We Got A Problem - 3:23
4 - Evolution - 3:38
5 - Hold On - 3:06
6 - Kiss - 4:10
7 - Do What They Say - 4:17
8 - Ever Be - 4:49
9 - Love And Luxury - 3:01
10 - Innocent Bystander - 3:28
11 - Killing - 3:36
12 - Hushabye - 3:52
13 - I Will Protect You - 5:30
14 - Sing Sorrow - 4:34

EAC-Log, CUE-Sheed & NFO:

Click to open spoiler
Exact Audio Copy V1.0 beta 4 from 7. December 2014

EAC extraction logfile from 21. March 2015, 12:14

Korn / Untitled

Used drive : ATAPI iHBS112 2 Adapter: 1 ID: 0

Read mode : Secure
Utilize accurate stream : Yes
Defeat audio cache : Yes
Make use of C2 pointers : No

Read offset correction : 6
Overread into Lead-In and Lead-Out : No
Fill up missing offset samples with silence : Yes
Delete leading and trailing silent blocks : No
Null samples used in CRC calculations : Yes
Used interface : Native Win32 interface for Win NT & 2000

Used output format : Internal WAV Routines
Sample format : 44.100 Hz; 16 Bit; Stereo

TOC of the extracted CD

Track | Start | Length | Start sector | End sector
———————————————————
1 | 0:00.00 | 1:57.12 | 0 | 8786
2 | 1:57.12 | 4:02.10 | 8787 | 26946
3 | 5:59.22 | 3:22.70 | 26947 | 42166
4 | 9:22.17 | 3:37.38 | 42167 | 58479
5 | 12:59.55 | 3:05.40 | 58480 | 72394
6 | 16:05.20 | 4:09.55 | 72395 | 91124
7 | 20:15.00 | 4:17.07 | 91125 | 110406
8 | 24:32.07 | 4:48.55 | 110407 | 132061
9 | 29:20.62 | 3:00.68 | 132062 | 145629
10 | 32:21.55 | 3:27.72 | 145630 | 161226
11 | 35:49.52 | 3:36.35 | 161227 | 177461
12 | 39:26.12 | 3:52.23 | 177462 | 194884
13 | 43:18.35 | 5:30.17 | 194885 | 219651
14 | 48:48.52 | 4:33.53 | 219652 | 240179

Range status and errors

Selected range

Filename C:\lossless\zhen01\Korn – Untitled.wav

Peak level 99.8 %
Extraction speed 8.3 X
Range quality 100.0 %
Test CRC 09D109C6
Copy CRC 09D109C6
Copy OK

No errors occurred

AccurateRip summary

Track 1 accurately ripped (confidence 31) [F7658E01] (AR v2)
Track 2 accurately ripped (confidence 31) [4EE7A628] (AR v2)
Track 3 accurately ripped (confidence 31) [C61E68EB] (AR v2)
Track 4 accurately ripped (confidence 32) [342E9E40] (AR v2)
Track 5 accurately ripped (confidence 32) [ECB3B8CF] (AR v2)
Track 6 accurately ripped (confidence 32) [E2638599] (AR v2)
Track 7 accurately ripped (confidence 31) [CDA4A515] (AR v2)
Track 8 accurately ripped (confidence 32) [3635E2CA] (AR v2)
Track 9 accurately ripped (confidence 32) [A3F55487] (AR v2)
Track 10 accurately ripped (confidence 31) [7C952A3D] (AR v2)
Track 11 accurately ripped (confidence 31) [1CBB8293] (AR v2)
Track 12 accurately ripped (confidence 31) [08840318] (AR v2)
Track 13 accurately ripped (confidence 30) [CEE72251] (AR v2)
Track 14 accurately ripped (confidence 31) [148F9A88] (AR v2)

All tracks accurately ripped

End of status report

—- CUETools DB Plugin V2.1.4

[CTDB TOCID: yQ6TQbUmXPthsC02Vd2hhxsBZ5E-] found
Submit result: already submitted
Track | CTDB Status
1 | (30/31) Accurately ripped
2 | (29/31) Accurately ripped
3 | (30/31) Accurately ripped
4 | (30/31) Accurately ripped
5 | (30/31) Accurately ripped
6 | (30/31) Accurately ripped
7 | (29/31) Accurately ripped
8 | (29/31) Accurately ripped
9 | (29/31) Accurately ripped
10 | (29/31) Accurately ripped
11 | (29/31) Accurately ripped
12 | (29/31) Accurately ripped
13 | (29/31) Accurately ripped
14 | (29/31) Accurately ripped

==== Log checksum 8362064B7B7A72D47AE3C0E0DA25C463D08A552B5FEBF5931CDF512A1EFD5312 ====

REM GENRE “Alternative Metal”
REM DATE 2007
REM DISCID BA0C820E
REM COMMENT “ExactAudioCopy v1.0b3”
CATALOG 0094637313923
PERFORMER “Korn”
TITLE “Untitled”
FILE “Korn – Untitled.flac” WAVE
TRACK 01 AUDIO
TITLE “Intro”
PERFORMER “Korn”
ISRC USVI20700882
INDEX 01 00:00:00
TRACK 02 AUDIO
TITLE “Starting Over”
PERFORMER “Korn”
ISRC USVI20700883
INDEX 01 01:57:12
TRACK 03 AUDIO
TITLE “Bitch We Got A Problem”
PERFORMER “Korn”
ISRC USVI20700887
INDEX 01 05:59:22
TRACK 04 AUDIO
TITLE “Evolution”
PERFORMER “Korn”
ISRC USVI20700869
INDEX 00 09:21:12
INDEX 01 09:22:17
TRACK 05 AUDIO
TITLE “Hold On”
PERFORMER “Korn”
ISRC USVI20700888
INDEX 01 12:59:55
TRACK 06 AUDIO
TITLE “Kiss”
PERFORMER “Korn”
ISRC USVI20700889
INDEX 00 16:02:65
INDEX 01 16:05:20
TRACK 07 AUDIO
TITLE “Do What They Say”
PERFORMER “Korn”
ISRC USVI20700890
INDEX 00 20:13:22
INDEX 01 20:15:00
TRACK 08 AUDIO
TITLE “Ever Be”
PERFORMER “Korn”
ISRC USVI20700891
INDEX 01 24:32:07
TRACK 09 AUDIO
TITLE “Love And Luxury”
PERFORMER “Korn”
ISRC USVI20700892
INDEX 01 29:20:62
TRACK 10 AUDIO
TITLE “Innocent Bystander”
PERFORMER “Korn”
ISRC USVI20700893
INDEX 00 32:19:37
INDEX 01 32:21:55
TRACK 11 AUDIO
TITLE “Killing”
PERFORMER “Korn”
ISRC USVI20700894
INDEX 01 35:49:52
TRACK 12 AUDIO
TITLE “Hushabye”
PERFORMER “Korn”
ISRC USVI20700895
INDEX 00 39:25:47
INDEX 01 39:26:12
TRACK 13 AUDIO
TITLE “I Will Protect You”
PERFORMER “Korn”
ISRC USVI20700868
INDEX 01 43:18:35
TRACK 14 AUDIO
TITLE “Sing Sorrow”
PERFORMER “Korn”
ISRC USVI20700897
INDEX 00 48:47:65
INDEX 01 48:48:52


Leave a Reply

Your email address will not be published. Required fields are marked *

This site uses Akismet to reduce spam. Learn how your comment data is processed.