Korn – The Path Of Totality




No Cover available

Artist: Korn
Year: 2011
Genre: Metal
Notes: Discogs
Add. Notes: Special Edition
Watch Songs on: YouTube
Cover incl.: Yes
Encoder: FLAC
Bitrate: ~1100 kBit/s (44.1 kHz/16 Bit/s)
Log & Cue incl.: Yes
Size: 424,5 MB
Password: “slam” (without ” “)


All Downloads/Hosters are compatible

Download 1
KatFile.com
Turbobit.net
FileFactory.com
Rapidgator.net
Download 2
KatFile.com
Turbobit.net
FileFactory.com
Rapidgator.net

Tracklist:

1 - Chaos Lives In Everything - 3:47
2 - Kill Mercy Within - 3:35
3 - My Wall - 2:55
4 - Narcissistic Cannibal - 3:10
5 - Illuminati - 3:16
6 - Burn The Obedient - 2:38
7 - Sanctuary - 3:24
8 - Let's Go - 2:40
9 - Get Up! - 3:42
10 - Way Too Far - 3:49
11 - Bleeding Out - 4:49
12 - Fuels The Comedy - 2:49
13 - Tension - 3:55

EAC-Log, CUE-Sheed & NFO:

Click to open spoiler
Exact Audio Copy V1.0 beta 4 from 7. December 2014

EAC extraction logfile from 21. March 2015, 12:43

Korn / The Path Of Totality

Used drive : ATAPI iHBS112 2 Adapter: 1 ID: 0

Read mode : Secure
Utilize accurate stream : Yes
Defeat audio cache : Yes
Make use of C2 pointers : No

Read offset correction : 6
Overread into Lead-In and Lead-Out : No
Fill up missing offset samples with silence : Yes
Delete leading and trailing silent blocks : No
Null samples used in CRC calculations : Yes
Used interface : Native Win32 interface for Win NT & 2000

Used output format : Internal WAV Routines
Sample format : 44.100 Hz; 16 Bit; Stereo

TOC of the extracted CD

Track | Start | Length | Start sector | End sector
———————————————————
1 | 0:00.00 | 3:47.27 | 0 | 17051
2 | 3:47.27 | 3:35.12 | 17052 | 33188
3 | 7:22.39 | 2:55.19 | 33189 | 46332
4 | 10:17.58 | 3:10.53 | 46333 | 60635
5 | 13:28.36 | 3:16.46 | 60636 | 75381
6 | 16:45.07 | 2:38.24 | 75382 | 87255
7 | 19:23.31 | 3:24.09 | 87256 | 102564
8 | 22:47.40 | 2:40.39 | 102565 | 114603
9 | 25:28.04 | 3:42.48 | 114604 | 131301
10 | 29:10.52 | 3:49.08 | 131302 | 148484
11 | 32:59.60 | 4:49.48 | 148485 | 170207
12 | 37:49.33 | 2:49.18 | 170208 | 182900
13 | 40:38.51 | 3:56.60 | 182901 | 200660

Range status and errors

Selected range

Filename C:\lossless\zhen01\Korn – The Path Of Totality.wav

Peak level 100.0 %
Extraction speed 7.8 X
Range quality 100.0 %
Test CRC E4C0363B
Copy CRC E4C0363B
Copy OK

No errors occurred

AccurateRip summary

Track 1 accurately ripped (confidence 64) [684C1D57] (AR v2)
Track 2 accurately ripped (confidence 63) [D08068A8] (AR v2)
Track 3 accurately ripped (confidence 63) [39B12EED] (AR v2)
Track 4 accurately ripped (confidence 63) [2A088258] (AR v2)
Track 5 accurately ripped (confidence 63) [11029C8B] (AR v2)
Track 6 accurately ripped (confidence 63) [6B6A87E8] (AR v2)
Track 7 accurately ripped (confidence 63) [DC75BC3F] (AR v2)
Track 8 accurately ripped (confidence 63) [EBB6A3C1] (AR v2)
Track 9 accurately ripped (confidence 63) [2711C0B3] (AR v2)
Track 10 accurately ripped (confidence 63) [7108A275] (AR v2)
Track 11 accurately ripped (confidence 63) [8E472568] (AR v2)
Track 12 accurately ripped (confidence 63) [F6053838] (AR v2)
Track 13 accurately ripped (confidence 63) [57F86779] (AR v2)

All tracks accurately ripped

End of status report

—- CUETools DB Plugin V2.1.4

[CTDB TOCID: aHMvS7Hw7Vh._dGZzRxQJq6jIlo-] found
Submit result: already submitted
Track | CTDB Status
1 | (138/138) Accurately ripped
2 | (138/138) Accurately ripped
3 | (138/138) Accurately ripped
4 | (138/138) Accurately ripped
5 | (137/138) Accurately ripped
6 | (138/138) Accurately ripped
7 | (138/138) Accurately ripped
8 | (138/138) Accurately ripped
9 | (138/138) Accurately ripped
10 | (138/138) Accurately ripped
11 | (138/138) Accurately ripped
12 | (138/138) Accurately ripped
13 | (138/138) Accurately ripped

==== Log checksum E92597FFE1652310CBC2F1401A816ABEA94AF7EAA84CF70DF79ADD5AF3089964 ====

REM GENRE Alternative
REM DATE 2011
REM DISCID 9D0A730D
REM COMMENT “ExactAudioCopy v1.0b3”
CATALOG 0016861772857
PERFORMER “Korn”
TITLE “The Path Of Totality”
FILE “Korn – The Path Of Totality.flac” WAVE
TRACK 01 AUDIO
TITLE “Chaos Lives In Everything”
PERFORMER “Korn”
ISRC NLA321191831
INDEX 01 00:00:00
TRACK 02 AUDIO
TITLE “Kill Mercy Within”
PERFORMER “Korn”
ISRC NLA321191832
INDEX 01 03:47:27
TRACK 03 AUDIO
TITLE “My Wall”
PERFORMER “Korn”
ISRC NLA321191833
INDEX 01 07:22:39
TRACK 04 AUDIO
TITLE “Narcissistic Cannibal”
PERFORMER “Korn”
ISRC NLA321191800
INDEX 01 10:17:58
TRACK 05 AUDIO
TITLE “Illuminati”
PERFORMER “Korn”
ISRC NLA321191834
INDEX 01 13:28:36
TRACK 06 AUDIO
TITLE “Burn The Obedient”
PERFORMER “Korn”
ISRC NLA321191835
INDEX 01 16:45:07
TRACK 07 AUDIO
TITLE “Sanctuary”
PERFORMER “Korn”
ISRC NLA321191836
INDEX 01 19:23:31
TRACK 08 AUDIO
TITLE “Let’s Go”
PERFORMER “Korn”
ISRC NLA321191837
INDEX 01 22:47:40
TRACK 09 AUDIO
TITLE “Get Up!”
PERFORMER “Korn”
ISRC NLA321191022
INDEX 01 25:28:04
TRACK 10 AUDIO
TITLE “Way Too Far”
PERFORMER “Korn”
ISRC NLA321191838
INDEX 01 29:10:52
TRACK 11 AUDIO
TITLE “Bleeding Out”
PERFORMER “Korn”
ISRC NLA321191830
INDEX 01 32:59:60
TRACK 12 AUDIO
TITLE “Fuels The Comedy”
PERFORMER “Korn”
ISRC NLA321191839
INDEX 01 37:49:33
TRACK 13 AUDIO
TITLE “Tension”
PERFORMER “Korn”
ISRC NLA321191840
INDEX 01 40:38:51


Leave a Reply

Your email address will not be published. Required fields are marked *

This site uses Akismet to reduce spam. Learn how your comment data is processed.