Korn – The Paradigm Shift




No Cover available

Artist: Korn
Year: 2013
Genre: Metal
Notes: Discogs
Add. Notes:
Watch Songs on: YouTube
Cover incl.: Yes
Encoder: FLAC
Bitrate: ~1000 kBit/s (44.1 kHz/16 Bit/s)
Log & Cue incl.: Yes
Size: 324 MB
Password: “slam” (without ” “)


All Downloads/Hosters are compatible

Download 1
KatFile.com
Turbobit.net
FileFactory.com
Rapidgator.net
Download 2
KatFile.com
Turbobit.net
FileFactory.com
Rapidgator.net

Tracklist:

1 - Prey For Me - 3:37
2 - Love & Meth - 4:03
3 - What We Do - 4:06
4 - Spike In My Veins - 4:24
5 - Mass Hysteria - 4:04
6 - Paranoid And Aroused - 3:34
7 - Never Never - 3:41
8 - Punishment Time - 4:00
9 - Lullaby For A Sadist - 4:18
10 - Victimized - 4:00
11 - It's All Wrong - 3:31
Bonus Tracks:
12 - Wish I Wasn't Born Today - 3:03
13 - Tell Me What You Want - 3:01
Japanese Bonus Track:
14 - Die Another Day - 3:45

EAC-Log, CUE-Sheed & NFO:

Click to open spoiler
Exact Audio Copy V1.0 beta 4 from 7. December 2014

EAC extraction logfile from 21. March 2015, 12:59

Korn / The Paradigm Shift

Used drive : ATAPI iHBS112 2 Adapter: 1 ID: 0

Read mode : Secure
Utilize accurate stream : Yes
Defeat audio cache : Yes
Make use of C2 pointers : No

Read offset correction : 6
Overread into Lead-In and Lead-Out : No
Fill up missing offset samples with silence : Yes
Delete leading and trailing silent blocks : No
Null samples used in CRC calculations : Yes
Used interface : Native Win32 interface for Win NT & 2000

Used output format : Internal WAV Routines
Sample format : 44.100 Hz; 16 Bit; Stereo

TOC of the extracted CD

Track | Start | Length | Start sector | End sector
———————————————————
1 | 0:00.00 | 3:35.74 | 0 | 16198
2 | 3:35.74 | 4:03.08 | 16199 | 34431
3 | 7:39.07 | 4:07.02 | 34432 | 52958
4 | 11:46.09 | 4:24.65 | 52959 | 72823
5 | 16:10.74 | 4:04.25 | 72824 | 91148
6 | 20:15.24 | 3:35.17 | 91149 | 107290
7 | 23:50.41 | 3:41.00 | 107291 | 123865
8 | 27:31.41 | 4:00.68 | 123866 | 141933
9 | 31:32.34 | 4:18.42 | 141934 | 161325
10 | 35:51.01 | 3:36.00 | 161326 | 177525
11 | 39:27.01 | 3:31.46 | 177526 | 193396
12 | 42:58.47 | 3:03.20 | 193397 | 207141
13 | 46:01.67 | 3:02.65 | 207142 | 220856
14 | 49:04.57 | 3:45.43 | 220857 | 237774

Range status and errors

Selected range

Filename C:\lossless\zhen01\Korn – The Paradigm Shift.wav

Peak level 96.6 %
Extraction speed 8.2 X
Range quality 100.0 %
Test CRC 714B1974
Copy CRC 714B1974
Copy OK

No errors occurred

AccurateRip summary

Track 1 accurately ripped (confidence 10) [A7E938AC] (AR v2)
Track 2 accurately ripped (confidence 10) [C2ADC978] (AR v2)
Track 3 accurately ripped (confidence 10) [B2869B89] (AR v2)
Track 4 accurately ripped (confidence 10) [A1D2782D] (AR v2)
Track 5 accurately ripped (confidence 10) [DF6EB638] (AR v2)
Track 6 accurately ripped (confidence 10) [B9F1DC20] (AR v2)
Track 7 accurately ripped (confidence 10) [6AF42C4F] (AR v2)
Track 8 accurately ripped (confidence 10) [631E7ED8] (AR v2)
Track 9 accurately ripped (confidence 10) [4B5A3BA8] (AR v2)
Track 10 accurately ripped (confidence 10) [2E9B4A6D] (AR v2)
Track 11 accurately ripped (confidence 10) [C5624C0A] (AR v2)
Track 12 accurately ripped (confidence 10) [2EF9A6B9] (AR v2)
Track 13 accurately ripped (confidence 10) [95EC5A4E] (AR v2)
Track 14 accurately ripped (confidence 10) [6674EE69] (AR v2)

All tracks accurately ripped

End of status report

—- CUETools DB Plugin V2.1.4

[CTDB TOCID: xr.O._6YikJpCIFLD8J7lVJOOqc-] found
Submit result: already submitted
Track | CTDB Status
1 | (17/17) Accurately ripped
2 | (17/17) Accurately ripped
3 | (17/17) Accurately ripped
4 | (17/17) Accurately ripped
5 | (17/17) Accurately ripped
6 | (17/17) Accurately ripped
7 | (17/17) Accurately ripped
8 | (17/17) Accurately ripped
9 | (17/17) Accurately ripped
10 | (17/17) Accurately ripped
11 | (17/17) Accurately ripped
12 | (17/17) Accurately ripped
13 | (17/17) Accurately ripped
14 | (17/17) Accurately ripped

==== Log checksum 8A39058B0143433265F2FB82D1A1095CAEAA84D6EE1D687ADF282AE21CF6609F ====

REM GENRE “Nu Metal”
REM DATE 2013
REM DISCID C70C620E
REM COMMENT “ExactAudioCopy v1.0b3”
CATALOG 0813985011813
PERFORMER “Korn”
TITLE “The Paradigm Shift”
FILE “Korn – The Paradigm Shift.flac” WAVE
TRACK 01 AUDIO
TITLE “Prey For Me”
PERFORMER “Korn”
ISRC US5Z51300359
INDEX 01 00:00:00
TRACK 02 AUDIO
TITLE “Love & Meth”
PERFORMER “Korn”
ISRC US5Z51300362
INDEX 01 03:35:74
TRACK 03 AUDIO
TITLE “What We Do”
PERFORMER “Korn”
ISRC US5Z51300358
INDEX 01 07:39:07
TRACK 04 AUDIO
TITLE “Spike In My Veins”
PERFORMER “Korn”
ISRC US5Z51300360
INDEX 01 11:46:09
TRACK 05 AUDIO
TITLE “Mass Hysteria”
PERFORMER “Korn”
ISRC US5Z51300361
INDEX 01 16:10:74
TRACK 06 AUDIO
TITLE “Paranoid And Aroused”
PERFORMER “Korn”
ISRC US5Z51300363
INDEX 01 20:15:24
TRACK 07 AUDIO
TITLE “Never Never”
PERFORMER “Korn”
ISRC US5Z51300364
INDEX 01 23:50:41
TRACK 08 AUDIO
TITLE “Punishment Time”
PERFORMER “Korn”
ISRC US5Z51300365
INDEX 01 27:31:41
TRACK 09 AUDIO
TITLE “Lullaby For A Sadist”
PERFORMER “Korn”
ISRC US5Z51300366
INDEX 01 31:32:34
TRACK 10 AUDIO
TITLE “Victimized”
PERFORMER “Korn”
ISRC US5Z51300367
INDEX 01 35:51:01
TRACK 11 AUDIO
TITLE “It’s All Wrong”
PERFORMER “Korn”
ISRC US5Z51300368
INDEX 01 39:27:01
TRACK 12 AUDIO
TITLE “Wish I Wasn’t Born Today”
PERFORMER “Korn”
ISRC US5Z51300369
INDEX 01 42:58:47
TRACK 13 AUDIO
TITLE “Tell Me What You Want”
PERFORMER “Korn”
ISRC US5Z51300370
INDEX 01 46:01:67
TRACK 14 AUDIO
TITLE “Die Another Day”
PERFORMER “Korn”
ISRC US5Z51300372
INDEX 01 49:04:57


Leave a Reply

Your email address will not be published. Required fields are marked *

This site uses Akismet to reduce spam. Learn how your comment data is processed.