Korn – Take A Look In The Mirror (Special Edition)




Artist: Korn
Year: 2003
Genre: Metal
Notes: Discogs
Add. Notes: Special Edition
Encoder: FLAC
Bitrate: ~900 kBit/s (VBR)
Size: 505,96 MB
Password: “slam” (without ” “)


Tracklist:

01 - Right Now - 3:10
02 - Break Some Off - 2:35
03 - Counting On Me - 4:43
04 - Here It Comes Again - 3:34
05 - Deep Inside - 2:46
06 - Did My Time - 4:04
07 - Everything I've Known - 3:35
08 - Play Me - 3:26
09 - Alive - 4:30
10 - Let's Do This Now - 3:19
11 - I'm Done - 3:23
12 - Y'All Want A Single - 3:18
13a - When Will This End - 3:40
13b - One (Live) - 4:32

EAC-Log, CUE-Sheed & NFO:

Click to open spoiler
Exact Audio Copy V1.0 beta 4 from 7. December 2014

EAC extraction logfile from 20. March 2015, 23:40

Korn / Take A Look In The Mirror

Used drive : ATAPI iHBS112 2 Adapter: 1 ID: 0

Read mode : Secure
Utilize accurate stream : Yes
Defeat audio cache : Yes
Make use of C2 pointers : No

Read offset correction : 6
Overread into Lead-In and Lead-Out : No
Fill up missing offset samples with silence : Yes
Delete leading and trailing silent blocks : No
Null samples used in CRC calculations : Yes
Used interface : Native Win32 interface for Win NT & 2000

Used output format : Internal WAV Routines
Sample format : 44.100 Hz; 16 Bit; Stereo

TOC of the extracted CD

Track | Start | Length | Start sector | End sector
———————————————————
1 | 0:00.00 | 3:09.72 | 0 | 14246
2 | 3:09.72 | 2:35.53 | 14247 | 25924
3 | 5:45.50 | 4:49.30 | 25925 | 47629
4 | 10:35.05 | 3:33.67 | 47630 | 63671
5 | 14:08.72 | 2:46.23 | 63672 | 76144
6 | 16:55.20 | 4:04.37 | 76145 | 94481
7 | 20:59.57 | 3:34.50 | 94482 | 110581
8 | 24:34.32 | 3:21.50 | 110582 | 125706
9 | 27:56.07 | 4:30.18 | 125707 | 145974
10 | 32:26.25 | 3:18.60 | 145975 | 160884
11 | 35:45.10 | 3:23.27 | 160885 | 176136
12 | 39:08.37 | 3:17.68 | 176137 | 190979
13 | 42:26.30 | 14:23.45 | 190980 | 255749

Range status and errors

Selected range

Filename C:\lossless\zhen01\Korn – Take A Look In The Mirror.wav

Peak level 99.8 %
Extraction speed 8.3 X
Range quality 99.9 %
Test CRC 6CAD2C04
Copy CRC 6CAD2C04
Copy OK

No errors occurred

AccurateRip summary

Track 1 accurately ripped (confidence 104) [AEA14B5E] (AR v2)
Track 2 accurately ripped (confidence 104) [41A1DA2B] (AR v2)
Track 3 accurately ripped (confidence 104) [38974617] (AR v2)
Track 4 accurately ripped (confidence 105) [128CA8B2] (AR v2)
Track 5 accurately ripped (confidence 105) [3EFC2140] (AR v2)
Track 6 accurately ripped (confidence 104) [23CD796A] (AR v2)
Track 7 accurately ripped (confidence 103) [2A23CF01] (AR v2)
Track 8 accurately ripped (confidence 103) [C208B27D] (AR v2)
Track 9 accurately ripped (confidence 103) [E9D989AA] (AR v2)
Track 10 accurately ripped (confidence 104) [6C34ACBF] (AR v2)
Track 11 accurately ripped (confidence 102) [4050ADFC] (AR v2)
Track 12 accurately ripped (confidence 103) [CB340DD2] (AR v2)
Track 13 accurately ripped (confidence 99) [4BE6809D] (AR v2)

All tracks accurately ripped

End of status report

—- CUETools DB Plugin V2.1.4

[CTDB TOCID: FfvNl4XzY6U4WZQ9VfBOuJFyevU-] found
Submit result: already submitted
Track | CTDB Status
1 | (169/169) Accurately ripped
2 | (168/169) Accurately ripped
3 | (168/169) Accurately ripped
4 | (168/169) Accurately ripped
5 | (169/169) Accurately ripped
6 | (168/169) Accurately ripped
7 | (168/169) Accurately ripped
8 | (168/169) Accurately ripped
9 | (169/169) Accurately ripped
10 | (169/169) Accurately ripped
11 | (169/169) Accurately ripped
12 | (169/169) Accurately ripped
13 | (168/169) Accurately ripped

==== Log checksum B6C0EDE65FF2538E7410FAA77CD3D4B33B22566FF4245000749A2B3F0DA8AB76 ====

REM GENRE “Nu Metal”
REM DATE 2003
REM DISCID B40D520D
REM COMMENT “ExactAudioCopy v1.0b3”
CATALOG 5099751332527
PERFORMER “Korn”
TITLE “Take A Look In The Mirror”
FILE “Korn – Take A Look In The Mirror.flac” WAVE
TRACK 01 AUDIO
TITLE “Right Now”
PERFORMER “Korn”
ISRC USSM10312780
INDEX 01 00:00:00
TRACK 02 AUDIO
TITLE “Break Some Off”
PERFORMER “Korn”
ISRC USSM10313529
INDEX 01 03:09:72
TRACK 03 AUDIO
TITLE “Counting On Me”
PERFORMER “Korn”
ISRC USSM10313525
INDEX 01 05:45:50
TRACK 04 AUDIO
TITLE “Here It Comes Again”
PERFORMER “Korn”
ISRC USSM10313522
INDEX 01 10:35:05
TRACK 05 AUDIO
TITLE “Deep Inside”
PERFORMER “Korn”
ISRC USSM10313521
INDEX 01 14:08:72
TRACK 06 AUDIO
TITLE “Did My Time”
PERFORMER “Korn”
ISRC USSM10308038
INDEX 01 16:55:20
TRACK 07 AUDIO
TITLE “Everything I’ve Known”
PERFORMER “Korn”
ISRC USSM10313520
INDEX 01 20:59:57
TRACK 08 AUDIO
TITLE “Play Me”
PERFORMER “Korn”
ISRC USSM10313526
INDEX 01 24:34:32
TRACK 09 AUDIO
TITLE “Alive”
PERFORMER “Korn”
ISRC USSM10313527
INDEX 01 27:56:07
TRACK 10 AUDIO
TITLE “Let’s Do This Now”
PERFORMER “Korn”
ISRC USSM10313524
INDEX 01 32:26:25
TRACK 11 AUDIO
TITLE “I’m Done”
PERFORMER “Korn”
ISRC USSM10313523
INDEX 01 35:45:10
TRACK 12 AUDIO
TITLE “Y’all Want A Single”
PERFORMER “Korn”
ISRC USSM10313528
INDEX 01 39:08:37
TRACK 13 AUDIO
TITLE “When Will This End”
PERFORMER “Korn”
ISRC USSM10313530
INDEX 01 42:26:30

Leave a Reply

Your email address will not be published. Required fields are marked *

This site uses Akismet to reduce spam. Learn how your comment data is processed.