Korn – See You On The Other Side (Limited Japanese Edition)




No Cover available

Artist: Korn
Year: 2005
Genre: Metal
Notes: Discogs
Add. Notes: Limited Japanese Edition
Watch Songs on: YouTube
Cover incl.: Yes
Encoder: FLAC
Bitrate: ~1100 kBit/s (44.1 kHz/16 Bit/s)
Log & Cue incl.: Yes
Size: 806,8 MB
Password: “slam” (without ” “)


All Downloads/Hosters are compatible

Download 1
KatFile.com
Turbobit.net
FileFactory.com
Rapidgator.net
Download 2
KatFile.com
Turbobit.net
FileFactory.com
Rapidgator.net

Tracklist:

1-1 - Twisted Transistor - 4:12
1-2 - Politics - 3:17
1-3 - Hypocrites - 3:50
1-4 - Souvenir - 3:50
1-5 - 10 Or A 2-Way - 4:41
1-6 - Throw Me Away - 4:41
1-7 - Love Song - 4:19
1-8 - Open Up - 6:15
1-9 - Coming Undone - 3:19
1-10 - Getting Off - 3:25
1-11 - Liar - 4:15
1-12 - For No One - 3:37
1-13 - Seen It All - 6:19
1-14 - Tearjerker - 5:09
Bonus Track
1-15 - Too Late I'm Dead - 3:28
Bonus Disc
2-1 - It's Me Again - 3:39
2-2 - Eaten Up Inside - 3:19
2-3 - Last Legal Drug (Le Petit Mort) - 5:17
2-4 - Twisted Transistor (The Dante Ross Mix) - 3:29
2-5 - Twisted Transistor (Dummies Club Mix) - 7:57

EAC-Log, CUE-Sheed & NFO:

Click to open spoiler
Exact Audio Copy V1.0 beta 4 from 7. December 2014

EAC extraction logfile from 21. March 2015, 11:16

Korn / See You On The Other Side CD1

Used drive : ATAPI iHBS112 2 Adapter: 1 ID: 0

Read mode : Secure
Utilize accurate stream : Yes
Defeat audio cache : Yes
Make use of C2 pointers : No

Read offset correction : 6
Overread into Lead-In and Lead-Out : No
Fill up missing offset samples with silence : Yes
Delete leading and trailing silent blocks : No
Null samples used in CRC calculations : Yes
Used interface : Native Win32 interface for Win NT & 2000
Gap handling : Appended to previous track

Used output format : Internal WAV Routines
Sample format : 44.100 Hz; 16 Bit; Stereo

TOC of the extracted CD

Track | Start | Length | Start sector | End sector
———————————————————
1 | 0:00.00 | 4:12.05 | 0 | 18904
2 | 4:12.05 | 3:16.71 | 18905 | 33675
3 | 7:29.01 | 3:49.64 | 33676 | 50914
4 | 11:18.65 | 3:49.70 | 50915 | 68159
5 | 15:08.60 | 4:41.40 | 68160 | 89274
6 | 19:50.25 | 4:41.00 | 89275 | 110349
7 | 24:31.25 | 4:18.70 | 110350 | 129769
8 | 28:50.20 | 6:15.17 | 129770 | 157911
9 | 35:05.37 | 3:19.58 | 157912 | 172894
10 | 38:25.20 | 3:25.05 | 172895 | 188274
11 | 41:50.25 | 4:14.57 | 188275 | 207381
12 | 46:05.07 | 3:37.16 | 207382 | 223672
13 | 49:42.23 | 6:19.28 | 223673 | 252125
14 | 56:01.51 | 5:08.57 | 252126 | 275282
15 | 61:10.33 | 3:27.62 | 275283 | 290869
16 | 67:10.20 | 6:47.24 | 302270 | 332818
17 | 73:57.44 | 0:00.31 | 332819 | 332849

Track 1

Filename C:\lossless\zhen01\Korn – See You On The Other Side\CD1\01 – Twisted Transistor.wav

Pre-gap length 0:00:02.00

Peak level 96.6 %
Extraction speed 2.2 X
Track quality 100.0 %
Test CRC DFF90F11
Copy CRC DFF90F11
Accurately ripped (confidence 4) [1E26127E] (AR v2)
Copy OK

Track 2

Filename C:\lossless\zhen01\Korn – See You On The Other Side\CD1\02 – Politics.wav

Peak level 96.6 %
Extraction speed 2.3 X
Track quality 100.0 %
Test CRC 8CDA0D81
Copy CRC 8CDA0D81
Accurately ripped (confidence 4) [C18EEC43] (AR v2)
Copy OK

Track 3

Filename C:\lossless\zhen01\Korn – See You On The Other Side\CD1\03 – Hypocrites.wav

Peak level 96.6 %
Extraction speed 2.5 X
Track quality 100.0 %
Test CRC 52D9736C
Copy CRC 52D9736C
Accurately ripped (confidence 4) [135A2D40] (AR v2)
Copy OK

Track 4

Filename C:\lossless\zhen01\Korn – See You On The Other Side\CD1\04 – Souvenir.wav

Peak level 96.6 %
Extraction speed 2.7 X
Track quality 100.0 %
Test CRC BCB779AF
Copy CRC BCB779AF
Accurately ripped (confidence 4) [E3669356] (AR v2)
Copy OK

Track 5

Filename C:\lossless\zhen01\Korn – See You On The Other Side\CD1\05 – 10 Or A 2-Way.wav

Peak level 96.6 %
Extraction speed 2.2 X
Track quality 99.9 %
Test CRC 1849F2EA
Copy CRC 1849F2EA
Accurately ripped (confidence 4) [71E91F33] (AR v2)
Copy OK

Track 6

Filename C:\lossless\zhen01\Korn – See You On The Other Side\CD1\06 – Throw Me Away.wav

Peak level 96.6 %
Extraction speed 3.1 X
Track quality 100.0 %
Test CRC 1E819209
Copy CRC 1E819209
Accurately ripped (confidence 4) [2F25669A] (AR v2)
Copy OK

Track 7

Filename C:\lossless\zhen01\Korn – See You On The Other Side\CD1\07 – Love Song.wav

Peak level 96.6 %
Extraction speed 2.4 X
Track quality 99.9 %
Test CRC 0E297EAC
Copy CRC 0E297EAC
Accurately ripped (confidence 4) [5B9FC1E2] (AR v2)
Copy OK

Track 8

Filename C:\lossless\zhen01\Korn – See You On The Other Side\CD1\08 – Open Up.wav

Peak level 96.6 %
Extraction speed 3.5 X
Track quality 100.0 %
Test CRC 3D019CA4
Copy CRC 3D019CA4
Accurately ripped (confidence 4) [8978C822] (AR v2)
Copy OK

Track 9

Filename C:\lossless\zhen01\Korn – See You On The Other Side\CD1\09 – Coming Undone.wav

Peak level 96.6 %
Extraction speed 3.4 X
Track quality 100.0 %
Test CRC BE7AF29D
Copy CRC BE7AF29D
Accurately ripped (confidence 4) [3FB8416F] (AR v2)
Copy OK

Track 10

Filename C:\lossless\zhen01\Korn – See You On The Other Side\CD1\10 – Getting Off.wav

Peak level 96.6 %
Extraction speed 3.5 X
Track quality 100.0 %
Test CRC 96A6CD7A
Copy CRC 96A6CD7A
Accurately ripped (confidence 4) [05D9D45E] (AR v2)
Copy OK

Track 11

Filename C:\lossless\zhen01\Korn – See You On The Other Side\CD1\11 – Liar.wav

Peak level 96.6 %
Extraction speed 3.8 X
Track quality 100.0 %
Test CRC C508BDD7
Copy CRC C508BDD7
Accurately ripped (confidence 4) [25E4CBFE] (AR v2)
Copy OK

Track 12

Filename C:\lossless\zhen01\Korn – See You On The Other Side\CD1\12 – For No One.wav

Peak level 96.6 %
Extraction speed 3.8 X
Track quality 100.0 %
Test CRC D75D4D81
Copy CRC D75D4D81
Accurately ripped (confidence 4) [D586AFF4] (AR v2)
Copy OK

Track 13

Filename C:\lossless\zhen01\Korn – See You On The Other Side\CD1\13 – Seen It All.wav

Peak level 96.6 %
Extraction speed 4.2 X
Track quality 100.0 %
Test CRC 982203DF
Copy CRC 982203DF
Accurately ripped (confidence 4) [9DCC34D9] (AR v2)
Copy OK

Track 14

Filename C:\lossless\zhen01\Korn – See You On The Other Side\CD1\14 – Tearjerker.wav

Peak level 96.6 %
Extraction speed 3.3 X
Track quality 99.9 %
Test CRC AC509C5A
Copy CRC AC509C5A
Accurately ripped (confidence 4) [67E0719E] (AR v2)
Copy OK

Track 15

Filename C:\lossless\zhen01\Korn – See You On The Other Side\CD1\15 – Too Late I’m Dead.wav

Pre-gap length 0:00:03.49

Peak level 96.6 %
Extraction speed 3.0 X
Track quality 99.9 %
Test CRC E527D0E7
Copy CRC E527D0E7
Accurately ripped (confidence 3) [1EAF2FDE] (AR v2)
Copy OK

Track 17

Filename C:\lossless\zhen01\Korn – See You On The Other Side\CD1\17 – Silent.wav

Pre-gap length 0:06:47.46

Peak level 0.0 %
Extraction speed 2.4 X
Track quality 100.0 %
Test CRC 66A7698D
Copy CRC 66A7698D
Track not present in AccurateRip database
Copy OK

15 track(s) accurately ripped
1 track(s) not present in the AccurateRip database

Some tracks could not be verified as accurate

No errors occurred

End of status report

==== Log checksum 199D8C535303CDEE77E1B66D3C52605434D4DEED516602CEF7F5674799F4815A ====

Exact Audio Copy V1.0 beta 4 from 7. December 2014

EAC extraction logfile from 21. March 2015, 11:28

Korn / See You On The Other Side CD2

Used drive : ATAPI iHBS112 2 Adapter: 1 ID: 0

Read mode : Secure
Utilize accurate stream : Yes
Defeat audio cache : Yes
Make use of C2 pointers : No

Read offset correction : 6
Overread into Lead-In and Lead-Out : No
Fill up missing offset samples with silence : Yes
Delete leading and trailing silent blocks : No
Null samples used in CRC calculations : Yes
Used interface : Native Win32 interface for Win NT & 2000
Gap handling : Appended to previous track

Used output format : Internal WAV Routines
Sample format : 44.100 Hz; 16 Bit; Stereo

TOC of the extracted CD

Track | Start | Length | Start sector | End sector
———————————————————
1 | 0:00.00 | 3:39.11 | 0 | 16435
2 | 3:39.11 | 3:19.07 | 16436 | 31367
3 | 6:58.18 | 5:17.61 | 31368 | 55203
4 | 12:16.04 | 3:29.41 | 55204 | 70919
5 | 15:45.45 | 7:55.09 | 70920 | 106553
6 | 26:12.54 | 14:27.35 | 117954 | 183013

Track 1

Filename C:\lossless\zhen01\Korn – See You On The Other Side\CD2\01 – It’s Me Again.wav

Pre-gap length 0:00:02.00

Peak level 94.4 %
Extraction speed 5.0 X
Track quality 100.0 %
Test CRC 66D36CC1
Copy CRC 66D36CC1
Accurately ripped (confidence 4) [20CEC97C] (AR v2)
Copy OK

Track 2

Filename C:\lossless\zhen01\Korn – See You On The Other Side\CD2\02 – Eaten Up Inside.wav

Peak level 94.4 %
Extraction speed 5.4 X
Track quality 100.0 %
Test CRC C5E6AD8D
Copy CRC C5E6AD8D
Accurately ripped (confidence 4) [9CCC88A7] (AR v2)
Copy OK

Track 3

Filename C:\lossless\zhen01\Korn – See You On The Other Side\CD2\03 – Last Legal Drug (Le Petit Mort).wav

Peak level 94.4 %
Extraction speed 6.3 X
Track quality 100.0 %
Test CRC FC35B154
Copy CRC FC35B154
Accurately ripped (confidence 4) [6EB08222] (AR v2)
Copy OK

Track 4

Filename C:\lossless\zhen01\Korn – See You On The Other Side\CD2\04 – Twisted Transistor (The Dante Ross Mix).wav

Peak level 94.4 %
Extraction speed 6.4 X
Track quality 100.0 %
Test CRC 738B078C
Copy CRC 738B078C
Accurately ripped (confidence 4) [2A21F3A5] (AR v2)
Copy OK

Track 5

Filename C:\lossless\zhen01\Korn – See You On The Other Side\CD2\05 – Twisted Transistor (Dummies Club Mix).wav

Peak level 94.4 %
Extraction speed 6.9 X
Track quality 99.9 %
Test CRC 232B39C8
Copy CRC 232B39C8
Accurately ripped (confidence 4) [70EB3FC4] (AR v2)
Copy OK

All tracks accurately ripped

No errors occurred

End of status report

—- CUETools DB Plugin V2.1.4

[CTDB TOCID: TtrpN7mQrv7OQaEpa6o2I_WkCDo-] found
Submit result: already submitted
Track | CTDB Status
1 | (43/43) Accurately ripped
2 | (43/43) Accurately ripped
3 | (43/43) Accurately ripped
4 | (43/43) Accurately ripped
5 | (43/43) Accurately ripped

==== Log checksum A84BB7D43E4D2694D3A19CCB932A023FB96A0AFB73D7072A4A9F401E8064E1B2 ====

REM GENRE Alternative
REM DATE 2005
REM DISCID E3115611
REM COMMENT “ExactAudioCopy v1.0b4”
CATALOG 4988006837263
PERFORMER “Korn”
TITLE “See You On The Other Side”
FILE “01 – Twisted Transistor.wav” WAVE
TRACK 01 AUDIO
TITLE “Twisted Transistor”
PERFORMER “Korn”
ISRC USVI20500580
INDEX 01 00:00:00
FILE “02 – Politics.wav” WAVE
TRACK 02 AUDIO
TITLE “Politics”
PERFORMER “Korn”
ISRC USVI20500581
INDEX 01 00:00:00
FILE “03 – Hypocrites.wav” WAVE
TRACK 03 AUDIO
TITLE “Hypocrites”
PERFORMER “Korn”
ISRC USVI20500582
INDEX 01 00:00:00
FILE “04 – Souvenir.wav” WAVE
TRACK 04 AUDIO
TITLE “Souvenir”
PERFORMER “Korn”
ISRC USVI20500583
INDEX 01 00:00:00
FILE “05 – 10 Or A 2-Way.wav” WAVE
TRACK 05 AUDIO
TITLE “10 Or A 2-Way”
PERFORMER “Korn”
ISRC USVI20500584
INDEX 01 00:00:00
FILE “06 – Throw Me Away.wav” WAVE
TRACK 06 AUDIO
TITLE “Throw Me Away”
PERFORMER “Korn”
ISRC USVI20500585
INDEX 01 00:00:00
FILE “07 – Love Song.wav” WAVE
TRACK 07 AUDIO
TITLE “Love Song”
PERFORMER “Korn”
ISRC USVI20500586
INDEX 01 00:00:00
FILE “08 – Open Up.wav” WAVE
TRACK 08 AUDIO
TITLE “Open Up”
PERFORMER “Korn”
ISRC USVI20500587
INDEX 01 00:00:00
FILE “09 – Coming Undone.wav” WAVE
TRACK 09 AUDIO
TITLE “Coming Undone”
PERFORMER “Korn”
ISRC USVI20500588
INDEX 01 00:00:00
FILE “10 – Getting Off.wav” WAVE
TRACK 10 AUDIO
TITLE “Getting Off”
PERFORMER “Korn”
ISRC USVI20500589
INDEX 01 00:00:00
FILE “11 – Liar.wav” WAVE
TRACK 11 AUDIO
TITLE “Liar”
PERFORMER “Korn”
ISRC USVI20500590
INDEX 01 00:00:00
FILE “12 – For No One.wav” WAVE
TRACK 12 AUDIO
TITLE “For No One”
PERFORMER “Korn”
ISRC USVI20500591
INDEX 01 00:00:00
FILE “13 – Seen It All.wav” WAVE
TRACK 13 AUDIO
TITLE “Seen It All”
PERFORMER “Korn”
ISRC USVI20500592
INDEX 01 00:00:00
FILE “14 – Tearjerker.wav” WAVE
TRACK 14 AUDIO
TITLE “Tearjerker”
PERFORMER “Korn”
ISRC USVI20500593
INDEX 01 00:00:00
TRACK 15 AUDIO
TITLE “Too Late I’m Dead”
PERFORMER “Korn”
ISRC USVI20500645
INDEX 00 05:05:08
FILE “15 – Too Late I’m Dead.wav” WAVE
INDEX 01 00:00:00
TRACK 16 MODEx/2xxx
TITLE “DATA”
PERFORMER “Korn”
INDEX 00 03:27:62

REM GENRE Alternative
REM DATE 2005
REM DISCID 44098806
REM COMMENT “ExactAudioCopy v1.0b4”
CATALOG 4988006838154
PERFORMER “Korn”
TITLE “See You On The Other Side CD2”
FILE “01 – It’s Me Again.wav” WAVE
TRACK 01 AUDIO
TITLE “It’s Me Again”
PERFORMER “Korn”
ISRC USVI20500602
INDEX 01 00:00:00
FILE “02 – Eaten Up Inside.wav” WAVE
TRACK 02 AUDIO
TITLE “Eaten Up Inside”
PERFORMER “Korn”
ISRC USVI20500579
INDEX 01 00:00:00
FILE “03 – Last Legal Drug (Le Petit Mort).wav” WAVE
TRACK 03 AUDIO
TITLE “Last Legal Drug (Le Petit Mort)”
PERFORMER “Korn”
ISRC USVI20500603
INDEX 01 00:00:00
FILE “04 – Twisted Transistor (The Dante Ross Mix).wav” WAVE
TRACK 04 AUDIO
TITLE “Twisted Transistor (The Dante Ross Mix)”
PERFORMER “Korn”
ISRC USVI20500595
INDEX 01 00:00:00
FILE “05 – Twisted Transistor (Dummies Club Mix).wav” WAVE
TRACK 05 AUDIO
TITLE “Twisted Transistor (Dummies Club Mix)”
PERFORMER “Korn”
ISRC USVI20500555
INDEX 01 00:00:00
TRACK 06 MODEx/2xxx
TITLE “DATA”
PERFORMER “Korn”
INDEX 00 07:55:09


Leave a Reply

Your email address will not be published. Required fields are marked *

This site uses Akismet to reduce spam. Learn how your comment data is processed.