Korn – Live & Rare (Japanese Edition)




Artist: Korn
Year: 2006
Genre: Metal
Notes: Discogs
Add. Notes: Japanese Edition
Encoder: FLAC
Bitrate: ~1000 kBit/s (44.1 kHz/16 Bit/s)
Size: 569,73 MB
Password: “slam” (without ” “)


http://www.share-online.biz/dl/UQG0RDPP01E0
http://www.share-online.biz/dl/CI00RDPP92
http://www.share-online.biz/dl/FO7ZQDPPF2
https://rapidgator.net/file/24a35b4d9095babfd8cf80dc96cc78c2/K2006_LiveRar.part1.rar
https://rapidgator.net/file/21487db51d2daf2b63812f65e5b4de67/K2006_LiveRar.part2.rar
https://rapidgator.net/file/e962f32eda7f6fae1b3d3259f241eb37/K2006_LiveRar.part3.rar

Onlinestatus: Turbobit.net Rapidgator.net

Tracklist:

1 - Did My Time - 4:12
2 - Blind - 4:12
3 - Falling Away From Me - 3:05
4 - Right Now - 4:06
5 - Got The Life - 4:19
6 - Here To Stay - 4:25
7 - Freak On A Leash - 8:21
8 - Another Brick In The Wall (Parts 1, 2, 3) - 4:27
9 - One - 8:21
10 - My Gift To You - 6:13
11 - A.D.I.D.A.S. - 3:50
12 - Earache My Eye - 4:50
13 - Proud - 3:26
14 - Sean Olson - 4:48
15 - I Can Remember - 3:37

EAC-Log, CUE-Sheed & NFO:

Click to open spoiler
Exact Audio Copy V1.0 beta 4 from 7. December 2014

EAC extraction logfile from 21. March 2015, 11:44

Korn / Live & Rare

Used drive : ATAPI iHBS112 2 Adapter: 1 ID: 0

Read mode : Secure
Utilize accurate stream : Yes
Defeat audio cache : Yes
Make use of C2 pointers : No

Read offset correction : 6
Overread into Lead-In and Lead-Out : No
Fill up missing offset samples with silence : Yes
Delete leading and trailing silent blocks : No
Null samples used in CRC calculations : Yes
Used interface : Native Win32 interface for Win NT & 2000

Used output format : Internal WAV Routines
Sample format : 44.100 Hz; 16 Bit; Stereo

TOC of the extracted CD

Track | Start | Length | Start sector | End sector
———————————————————
1 | 0:00.00 | 4:12.50 | 0 | 18949
2 | 4:12.50 | 4:12.30 | 18950 | 37879
3 | 8:25.05 | 4:15.42 | 37880 | 57046
4 | 12:40.47 | 3:05.35 | 57047 | 70956
5 | 15:46.07 | 4:06.38 | 70957 | 89444
6 | 19:52.45 | 4:19.72 | 89445 | 108941
7 | 24:12.42 | 4:25.18 | 108942 | 128834
8 | 28:37.60 | 8:21.27 | 128835 | 166436
9 | 36:59.12 | 4:27.25 | 166437 | 186486
10 | 41:26.37 | 6:13.60 | 186487 | 214521
11 | 47:40.22 | 3:50.18 | 214522 | 231789
12 | 51:30.40 | 4:50.55 | 231790 | 253594
13 | 56:21.20 | 3:28.48 | 253595 | 269242
14 | 59:49.68 | 4:48.42 | 269243 | 290884
15 | 64:38.35 | 3:37.03 | 290885 | 307162

Range status and errors

Selected range

Filename C:\lossless\zhen01\Korn – Live & Rare.wav

Peak level 100.0 %
Extraction speed 9.7 X
Range quality 100.0 %
Test CRC 2246E17D
Copy CRC 2246E17D
Copy OK

No errors occurred

AccurateRip summary

Track 1 accurately ripped (confidence 3) [22B2E81A] (AR v2)
Track 2 accurately ripped (confidence 3) [5F0BEF68] (AR v2)
Track 3 accurately ripped (confidence 3) [5DADAB32] (AR v2)
Track 4 accurately ripped (confidence 3) [5736E95F] (AR v2)
Track 5 accurately ripped (confidence 3) [70D3D0B8] (AR v2)
Track 6 accurately ripped (confidence 3) [EBBF7260] (AR v2)
Track 7 accurately ripped (confidence 3) [814511FF] (AR v2)
Track 8 accurately ripped (confidence 3) [DB07FA10] (AR v2)
Track 9 accurately ripped (confidence 3) [ADD97466] (AR v2)
Track 10 accurately ripped (confidence 3) [C003B97C] (AR v2)
Track 11 accurately ripped (confidence 3) [C3E30D37] (AR v2)
Track 12 accurately ripped (confidence 3) [47276B89] (AR v2)
Track 13 accurately ripped (confidence 3) [531AC9E0] (AR v2)
Track 14 accurately ripped (confidence 3) [627A8413] (AR v2)
Track 15 accurately ripped (confidence 3) [F3402305] (AR v2)

All tracks accurately ripped

End of status report

—- CUETools DB Plugin V2.1.4

[CTDB TOCID: nyp0m53ML2Pc41Y6Gfs5fVZqCM8-] found
Submit result: already submitted
Track | CTDB Status
1 | (2/2) Accurately ripped
2 | (2/2) Accurately ripped
3 | (2/2) Accurately ripped
4 | (2/2) Accurately ripped
5 | (2/2) Accurately ripped
6 | (2/2) Accurately ripped
7 | (2/2) Accurately ripped
8 | (2/2) Accurately ripped
9 | (2/2) Accurately ripped
10 | (2/2) Accurately ripped
11 | (2/2) Accurately ripped
12 | (2/2) Accurately ripped
13 | (2/2) Accurately ripped
14 | (2/2) Accurately ripped
15 | (2/2) Accurately ripped

==== Log checksum CE790B1DE5A23EBEC0EC1ED9D2DE11A401182FB3859D503832AA8959D5E073B8 ====

REM GENRE “Nu Metal”
REM DATE 2006
REM DISCID DF0FFF0F
REM COMMENT “ExactAudioCopy v1.0b4”
PERFORMER “Korn”
TITLE “Live & Rare”
FILE “Korn – Live & Rare.flac” WAVE
TRACK 01 AUDIO
TITLE “Did My Time”
PERFORMER “Korn”
ISRC USSM10600793
INDEX 01 00:00:00
TRACK 02 AUDIO
TITLE “Blind”
PERFORMER “Korn”
ISRC USSM10600794
INDEX 01 04:12:50
TRACK 03 AUDIO
TITLE “Falling Away From Me”
PERFORMER “Korn”
ISRC USSM10600795
INDEX 01 08:25:05
TRACK 04 AUDIO
TITLE “Right Now”
PERFORMER “Korn”
ISRC USSM10600796
INDEX 01 12:40:47
TRACK 05 AUDIO
TITLE “Got The Life”
PERFORMER “Korn”
ISRC USSM10413054
INDEX 01 15:46:07
TRACK 06 AUDIO
TITLE “Here To Stay”
PERFORMER “Korn”
ISRC USSM10600798
INDEX 01 19:52:45
TRACK 07 AUDIO
TITLE “Freak On A Leash”
PERFORMER “Korn”
ISRC USSM10600799
INDEX 01 24:12:42
TRACK 08 AUDIO
TITLE “Anothe Brick In The Wall (Part 1, 2, 3)”
PERFORMER “Korn”
ISRC USSM10413749
INDEX 00 28:36:25
INDEX 01 28:37:60
TRACK 09 AUDIO
TITLE “One”
PERFORMER “Korn”
ISRC USLIC0600110
INDEX 01 36:59:12
TRACK 10 AUDIO
TITLE “My Gift To You”
PERFORMER “Korn”
ISRC USSM10600801
INDEX 00 41:25:20
INDEX 01 41:26:37
TRACK 11 AUDIO
TITLE “A.D.I.D.A.S.”
PERFORMER “Korn”
ISRC USSM10600802
INDEX 01 47:40:22
TRACK 12 AUDIO
TITLE “Earache My Eye”
PERFORMER “Korn”
ISRC USSM10600803
INDEX 00 51:28:37
INDEX 01 51:30:40
TRACK 13 AUDIO
TITLE “Proud”
PERFORMER “Korn”
ISRC USSM19702253
INDEX 00 56:19:40
INDEX 01 56:21:20
TRACK 14 AUDIO
TITLE “Sean Olson”
PERFORMER “Korn”
ISRC USSM19500438
INDEX 00 59:48:05
INDEX 01 59:49:68
TRACK 15 AUDIO
TITLE “I Can Remember”
PERFORMER “Korn”
ISRC USSM19803327
INDEX 00 64:36:35
INDEX 01 64:38:35

Leave a Reply

Your email address will not be published. Required fields are marked *

Enter the text from the image below
 

This site uses Akismet to reduce spam. Learn how your comment data is processed.